Колобок (Марина Карпова) [2012, Детский, семейный, анимационный, WEBRip] из цикла "Гора самоцветов"

 
Автор Сообщение

TorrentFilm ®

Пол:

Стаж: 2 года

Сообщений: 7741



Награды: Нет

Торрент-статистика

Создавать темы 01-Янв-2016 00:15

[Цитировать]

Колобок Проект "Гора самоцветов" (неизданное).
Год выпуска:
2012.
Страна: Россия .
Выпущено: "Анимационная студия Пилот Александра Татарского", НП Фонд поддержки анимационного кино "Пилот".
Жанр: Детский, семейный, анимационный.
Продолжительность: 00:11:46.
Режиссер: Марина Карпова.
Описание:
Дошло, наконец, дело у режиссеров "Пилота" и до этой популярной сказки - выбрала ее для экранизации белорусский режиссер Марина Карпова, которая хорошо известна поклонникам цикла, благодаря фильмам "Медвежьи истории", "Шиш", "Козья хатка". Смелое решение. Во-первых, сказка уж очень известная и сюжетом зрителей не заинтригуешь. Во-вторых, поди растяни коротенький текст на 11,5 минут. В-третьих, опять же проблема с финалом: что это за сказка такая, где главный герой помирает в конце? По нашим временам безобразие просто. Не только режиссеры, берущие этот сюжет, но и сами родители, зачастую присочиняют "Колобку" хэппи-энд, однако не хорошо ведь из песни слова выкидывать.
Карпова справилась со челленджем на все сто. Ее "Колобок" очень необычен и в то же время практически лишен "отсебятины", а финал придуман и вовсе блестяще (сохраним его, впрочем, в секрете, чтобы не портить удовольствия будущим зрителям). С помощью какого-то неведомого волшебства Марина превратила простенькую сказку в большое кино с огромным количеством персонажей, шикарным дизайном и симфоническими музыкальными номерами, которые имеют все шансы стать настоящими шлягерами.
(Мария Терещенко)

Дополнительная информация:
Фильм снят при государственной финансовой поддержке министерства культуры Российской Федерации!
Официальный сайт проекта "Гора самоцветов" Александра Татарского.
Официальный сайт "Анимационной студии Пилот Александра Татарского".
Обзор Марии Терещенко новых фильмов проекта на Кино-Театр.ру.

Релиз HeDgEhOt.....
Качество видео:...WEBRip
Формат:.................AVI
Видео: 720x400 (1.80:1), 25 fps, XviD build 50 ~1579 kbps avg, 0.22 bit/pixel
Аудио: 48 kHz, AC3 Dolby Digital, 2/0 (L,R) ch, ~192 kbps

Отчет Media Info

Общее
Полное имя : Kolobok.2012.XviD.WEBRip.by.HeDgEhOt.avi
Формат : AVI
Формат/Информация : Audio Video Interleave
Размер файла : 150 Мбайт
Продолжительность : 11 м.
Общий поток : 1781 Кбит/сек
Название фильма : Колобок (2012)
Правообладатель : HeDgEhOt®
Видео
Идентификатор : 0
Формат : MPEG-4 Visual
Профиль формата : Advanced Simple@L5
Параметр BVOP формата : 1
Параметр QPel формата : Нет
Параметр GMC формата : Без точки перехода
Параметр матрицы формата : Default (MPEG)
Идентификатор кодека : XVID
Идентификатор кодека/Подсказка : XviD
Продолжительность : 11 м.
Битрейт : 1580 Кбит/сек
Ширина : 720 пикселей
Высота : 400 пикселей
Соотношение сторон : 16:9
Частота кадров : 25,000 кадров/сек
Цветовое пространство : YUV
Субдискретизация насыщенности : 4:2:0
Битовая глубина : 8 бит
Тип развёртки : Прогрессивная
Метод сжатия : С потерями
Бит/(Пиксели*Кадры) : 0.219
Размер потока : 133 Мбайт (89%)
Библиотека кодирования : XviD 1.2.1 (UTC 2008-12-04)
Аудио
Идентификатор : 1
Формат : AC-3
Формат/Информация : Audio Coding 3
Расширение режима : CM (complete main)
Параметр Endianness формата : Big
Идентификатор кодека : 2000
Продолжительность : 11 м.
Вид битрейта : Постоянный
Битрейт : 192 Кбит/сек
Каналы : 2 канала
Расположение каналов : Front: L R
Частота : 48,0 КГц
Битовая глубина : 16 бит
Метод сжатия : С потерями
Размер потока : 16,2 Мбайт (11%)
Выравнивание : Соединение по промежуткам
Продолжительность промежутка : 40 мс. (1,00 видеокадр)
Время предзагрузки промежутка : 512 мс.
Язык : Русский

Скриншоты

Альтернативный хост

Мультфильмы из проекта "Гора самоцветов" (неизданное):
Петушок и кошечка (Сергей Меринов) [2012, Детский, семейный, анимационный, WEBRip] из цикла "Гора самоцветов"
Сказ хотанского ковра (Наталья Березовая) [2012, Детский, семейный, анимационный, WEBRip] из цикла "Гора самоцветов"
По колено ноги в золоте, по локоть руки в серебре (Сергей Гордеев) [2013, Детский, семейный, анимационный, WEBRip] из цикла "Гора самоцветов"
Подарки черного ворона (Степан Бирюков) [2012, Детский, семейный, анимационный, WEBRip] из цикла "Гора самоцветов"
Колобок (Марина Карпова) [2012, Детский, семейный, анимационный, WEBRip] из цикла "Гора самоцветов"
[Профиль] [ЛС]
Показать сообщения:    

Текущее время: Сегодня 18:36

Часовой пояс: GMT



Вы не можете начинать темы
Вы не можете отвечать на сообщения
Вы не можете редактировать свои сообщения
Вы не можете удалять свои сообщения
Вы не можете голосовать в опросах
Вы не можете прикреплять файлы к сообщениям
Вы не можете скачивать файлы