Коллекция фильмов с Брюсом Ли 1971-1978 / Bruce Lee Ultimate Collection (1971-1978) BDRip 1080p | D, P, P2, A

 
Автор Сообщение

достали все ®

Пол:

Стаж: 1 год 8 месяцев

Сообщений: 6581



Награды: 12 (Подробнее)

Top Releaser 3 (Количество: 1) Mega Seeder 4 (Количество: 1) Top Releaser 4 (Количество: 1)
Торрент-статистика

Создавать темы 24-Авг-2016 10:15

[Цитировать]

Большой Босс / The Big Boss / Tang Shan Da Xiong (1971) BDRip 1080p:


Год выпуска: 1971
Страна: Гонконг
Жанр: Боевик
Продолжительность: 01:39:41
Перевод: Профессиональный (многоголосый, закадровый) Superbit
Перевод: Профессиональный (Двухголосый, закадровый)
Перевод: Авторский (одноголосый закадровый) В.Горчаков
Перевод: Авторский (одноголосый закадровый) Ю.Живов
Перевод: Авторский (одноголосый закадровый) В.Королев
Субтитры: Русские, английские
Режиссер: Вэй Ло, Чиа-хсианг
В ролях: Брюс Ли, Мария Йи, Джеймс Тьен, Мэрлин Баутиста, Инь-Чиэ Хань, Тони Лю, Куин Ли, Нора Миао, Чань Чинь, Чи Чен
О фильме: Скромный паренёк из Гонконга Чен Чао-Ан приезжает в Таиланд к своим родственникам, чтобы те помогли ему с работой. Он устраивается на фабрику по производству льда.

Качество: BDRip 1080p
Формат: MKV
Видео кодек: H264
Аудио кодек: AC3
Видео: MPEG4 Video (H264), 1920x816, 23.976fps, 12.0 Mbps
Аудио #01: Русский: Dolby AC3, 48000 Hz, 6ch, 448 kbps - Многоголосый, Superbit
Аудио #02: Русский: Dolby AC3, 48000 Hz, 2ch, 192 kbps - Двухголосый
Аудио #03: Русский: Dolby AC3, 48000 Hz, 2ch, 192 kbps - Одноголосый, В.Горчаков
Аудио #04: Русский: Dolby AC3, 48000 Hz, 2ch, 192 kbps - Одноголосый, Ю.Живов
Аудио #05: Русский: Dolby AC3, 48000 Hz, 6ch, 448 kbps - Одноголосый, В.Королев
Аудио #06: Китайский: Dolby AC3, 48000 Hz, 6ch, 448 kbps
Формат субтитров: softsub (SRT)
Сэмпл
MediaInfo:
General
Unique ID : 247632127301421516066287090883772288178 (0xBA4C3681AD472D7EB4FC5B8570C80CB2)
Complete name : F:Torrent 21971-1978.Bruce.Lee.renta231971 Большой босс.mkv
Format : Matroska
Format version : Version 4 / Version 2
File size : 9.69 GiB
Duration : 1 h 39 min
Overall bit rate : 13.9 Mb/s
Movie name : 1971 Большой босс/renta23
Encoded date : UTC 2015-04-12 14:09:50
Writing application : mkvmerge v7.8.0 ('River Man') 32bit built on Mar 27 2015 16:18:02
Writing library : libebml v1.3.1 + libmatroska v1.4.2
Video
ID : 1
Format : AVC
Format/Info : Advanced Video Codec
Format profile : High@L4.1
Format settings, CABAC : Yes
Format settings, ReFrames : 3 frames
Codec ID : V_MPEG4/ISO/AVC
Duration : 1 h 39 min
Bit rate : 12.0 Mb/s
Width : 1 920 pixels
Height : 816 pixels
Display aspect ratio : 2.35:1
Frame rate mode : Constant
Frame rate : 23.976 (24000/1001) FPS
Color space : YUV
Chroma subsampling : 4:2:0
Bit depth : 8 bits
Scan type : Progressive
Bits/(Pixel*Frame) : 0.319
Stream size : 8.36 GiB (86%)
Title : 1971 Большой босс
Writing library : x264 core 125 r2208 d9d2288
Encoding settings : cabac=1 / ref=4 / deblock=1:-1:-1 / analyse=0x3:0x133 / me=umh / subme=11 / psy=1 / psy_rd=1.10:0.15 / mixed_ref=1 / me_range=24 / chroma_me=1 / trellis=2 / 8x8dct=1 / cqm=0 / deadzone=21,11 / fast_pskip=0 / chroma_qp_offset=-3 / threads=12 / lookahead_threads=2 / sliced_threads=0 / nr=0 / decimate=1 / interlaced=0 / bluray_compat=0 / constrained_intra=0 / bframes=12 / b_pyramid=1 / b_adapt=2 / b_bias=0 / direct=3 / weightb=1 / open_gop=0 / weightp=2 / keyint=250 / keyint_min=23 / scenecut=40 / intra_refresh=0 / rc_lookahead=50 / rc=2pass / mbtree=1 / bitrate=12000 / ratetol=1.0 / qcomp=0.60 / qpmin=0 / qpmax=69 / qpstep=4 / cplxblur=20.0 / qblur=0.5 / ip_ratio=1.40 / aq=1:1.10
Language : Chinese
Default : Yes
Forced : No
Audio #1
ID : 2
Format : AC-3
Format/Info : Audio Coding 3
Mode extension : CM (complete main)
Format settings, Endianness : Big
Codec ID : A_AC3
Duration : 1 h 39 min
Bit rate mode : Constant
Bit rate : 448 kb/s
Channel(s) : 6 channels
Channel positions : Front: L C R, Side: L R, LFE
Sampling rate : 48.0 kHz
Frame rate : 31.250 FPS (1536 spf)
Compression mode : Lossy
Stream size : 319 MiB (3%)
Title : Многоголосый закадровый, Superbit
Language : Russian
Default : Yes
Forced : No
Audio #2
ID : 3
Format : AC-3
Format/Info : Audio Coding 3
Mode extension : CM (complete main)
Format settings, Endianness : Big
Codec ID : A_AC3
Duration : 1 h 39 min
Bit rate mode : Constant
Bit rate : 192 kb/s
Channel(s) : 2 channels
Channel positions : Front: L R
Sampling rate : 48.0 kHz
Frame rate : 31.250 FPS (1536 spf)
Compression mode : Lossy
Stream size : 137 MiB (1%)
Title : Двухголосый закадровый
Language : Russian
Default : No
Forced : No
Audio #3
ID : 4
Format : AC-3
Format/Info : Audio Coding 3
Mode extension : CM (complete main)
Format settings, Endianness : Big
Codec ID : A_AC3
Duration : 1 h 39 min
Bit rate mode : Constant
Bit rate : 192 kb/s
Channel(s) : 2 channels
Channel positions : Front: L R
Sampling rate : 48.0 kHz
Frame rate : 31.250 FPS (1536 spf)
Compression mode : Lossy
Stream size : 137 MiB (1%)
Title : Одноголосый закадровый, В.Горчаков
Language : Russian
Default : No
Forced : No
Audio #4
ID : 5
Format : AC-3
Format/Info : Audio Coding 3
Mode extension : CM (complete main)
Format settings, Endianness : Big
Codec ID : A_AC3
Duration : 1 h 39 min
Bit rate mode : Constant
Bit rate : 192 kb/s
Channel(s) : 2 channels
Channel positions : Front: L R
Sampling rate : 48.0 kHz
Frame rate : 31.250 FPS (1536 spf)
Compression mode : Lossy
Stream size : 137 MiB (1%)
Title : Одноголосый закадровый, Ю.Живов
Language : Russian
Default : No
Forced : No
Audio #5
ID : 6
Format : AC-3
Format/Info : Audio Coding 3
Mode extension : CM (complete main)
Format settings, Endianness : Big
Codec ID : A_AC3
Duration : 1 h 39 min
Bit rate mode : Constant
Bit rate : 448 kb/s
Channel(s) : 6 channels
Channel positions : Front: L C R, Side: L R, LFE
Sampling rate : 48.0 kHz
Frame rate : 31.250 FPS (1536 spf)
Compression mode : Lossy
Stream size : 319 MiB (3%)
Title : Одноголосый закадровый, В.Королев
Language : Russian
Default : No
Forced : No
Audio #6
ID : 7
Format : AC-3
Format/Info : Audio Coding 3
Mode extension : CM (complete main)
Format settings, Endianness : Big
Codec ID : A_AC3
Duration : 1 h 39 min
Bit rate mode : Constant
Bit rate : 448 kb/s
Channel(s) : 6 channels
Channel positions : Front: L C R, Side: L R, LFE
Sampling rate : 48.0 kHz
Frame rate : 31.250 FPS (1536 spf)
Compression mode : Lossy
Stream size : 319 MiB (3%)
Language : Chinese
Default : No
Forced : No
Text #1
ID : 8
Format : UTF-8
Codec ID : S_TEXT/UTF8
Codec ID/Info : UTF-8 Plain Text
Duration : 1 h 38 min
Bit rate : 40 b/s
Count of elements : 746
Stream size : 29.5 KiB (0%)
Language : Russian
Default : No
Forced : No
Text #2
ID : 9
Format : UTF-8
Codec ID : S_TEXT/UTF8
Codec ID/Info : UTF-8 Plain Text
Duration : 1 h 37 min
Bit rate : 21 b/s
Count of elements : 752
Stream size : 15.6 KiB (0%)
Language : English
Default : No
Forced : No
Menu
00:00:00.000 : en:Chapter 01
00:01:29.464 : en:Chapter 02
00:08:08.196 : en:Chapter 03
00:10:16.824 : en:Chapter 04
00:14:42.131 : en:Chapter 05
00:17:16.535 : en:Chapter 06
00:21:37.754 : en:Chapter 07
00:24:54.868 : en:Chapter 08
00:26:33.800 : en:Chapter 09
00:34:39.160 : en:Chapter 10
00:37:02.845 : en:Chapter 11
00:39:07.219 : en:Chapter 12
00:50:48.670 : en:Chapter 13
00:55:02.716 : en:Chapter 14
00:59:40.743 : en:Chapter 15
01:03:38.564 : en:Chapter 16
01:06:07.755 : en:Chapter 17
01:18:03.220 : en:Chapter 18
01:29:46.589 : en:Chapter 19
01:38:16.098 : en:Chapter 20

Кулак ярости / Fist Of Fury / Jing Wu Men (1972) BDRip 1080p:


Год выпуска: 1972
Страна: Гонконг
Жанр: Боевик
Продолжительность: 01:46:50
Перевод: Профессиональный (многоголосый закадровый) Superbit
Перевод: Профессиональный (многоголосый закадровый)
Перевод: Авторский (одноголосый закадровый) В.Горчаков
Перевод: Авторский (одноголосый закадровый) Ю.Живов
Перевод: Авторский (одноголосый закадровый) В.Королев
Cубтитры: Русские, английские
Режиссер: Ло Вэй
В ролях: Брюс Ли, Нора Миао, Джеймс Тьен, Мария Йи, Роберт Бейкер, Фу Чинг Чен, Сань Чинь, Инь-Чиэ Хань, Рики Хашимото, Дзюн Кацумура, Чун Синь Хуан, Куин Ли
О фильме: Искусный и быстрый, как молния, мастер восточных боевых искусств Чен Жен возвращается в свою бывшую школу, где его ждет страшная новость. Зверски убит глубоко почитаемый наставник, преподававший кун-фу и карате. Действие фильма происходит в 1908 году в оккупированном японцами Шанхае. Нападение на школу и убийство учителя было организовано одной из японских школ бушидо. Зная, что власти и пальцем не пошевелят, чтобы привлечь преступников к ответственности, Чен Жен обрушивает на злодеев свой кулак ярости.

Качество: BDRip 1080p
Формат: MKV
Видео кодек: H264
Аудио кодек: AC3
Видео: MPEG4 Video (H264), 1920x816, 23.976fps, 12.0 Mbps
Аудио #01: Русский: Dolby AC3, 48000 Hz, 6ch, 448 kbps - Многоголосый, Superbit
Аудио #02: Русский: Dolby AC3, 48000 Hz, 2ch, 192 kbps - Многоголосый
Аудио #03: Русский: Dolby AC3, 48000 Hz, 2ch, 192 kbps - Одноголосый, В.Горчаков
Аудио #04: Русский: Dolby AC3, 48000 Hz, 2ch, 192 kbps - Одноголосый, Ю.Живов
Аудио #05: Русский: Dolby AC3, 48000 Hz, 6ch, 448 kbps - Одноголосый, В.Королев
Аудио #06: Китайский: Dolby AC3, 48000 Hz, 6ch, 448 kbps
Формат субтитров: softsub (SRT)
Сэмпл
MediaInfo: General
Unique ID : 246326951170133407576594902105478969565 (0xB950D85AE2EEB073A5AA17542794B8DD)
Complete name : F:Torrent 21971-1978.Bruce.Lee.renta231972 Кулак ярости.mkv
Format : Matroska
Format version : Version 4 / Version 2
File size : 9.64 GiB
Duration : 1 h 46 min
Overall bit rate : 12.9 Mb/s
Movie name : Кулак ярости 1972/renta23
Encoded date : UTC 2015-04-11 11:47:15
Writing application : mkvmerge v7.8.0 ('River Man') 32bit built on Mar 27 2015 16:18:02
Writing library : libebml v1.3.1 + libmatroska v1.4.2
Video
ID : 1
Format : AVC
Format/Info : Advanced Video Codec
Format profile : High@L4.1
Format settings, CABAC : Yes
Format settings, ReFrames : 3 frames
Codec ID : V_MPEG4/ISO/AVC
Duration : 1 h 46 min
Bit rate : 11.0 Mb/s
Width : 1 920 pixels
Height : 816 pixels
Display aspect ratio : 2.35:1
Frame rate mode : Constant
Frame rate : 23.976 (24000/1001) FPS
Color space : YUV
Chroma subsampling : 4:2:0
Bit depth : 8 bits
Scan type : Progressive
Bits/(Pixel*Frame) : 0.293
Stream size : 8.21 GiB (85%)
Title : Кулак ярости 1972
Writing library : x264 core 125 r2208 d9d2288
Encoding settings : cabac=1 / ref=4 / deblock=1:-1:-1 / analyse=0x3:0x133 / me=umh / subme=11 / psy=1 / psy_rd=1.10:0.15 / mixed_ref=1 / me_range=24 / chroma_me=1 / trellis=2 / 8x8dct=1 / cqm=0 / deadzone=21,11 / fast_pskip=0 / chroma_qp_offset=-3 / threads=12 / lookahead_threads=2 / sliced_threads=0 / nr=0 / decimate=1 / interlaced=0 / bluray_compat=0 / constrained_intra=0 / bframes=12 / b_pyramid=1 / b_adapt=2 / b_bias=0 / direct=3 / weightb=1 / open_gop=0 / weightp=2 / keyint=250 / keyint_min=23 / scenecut=40 / intra_refresh=0 / rc_lookahead=50 / rc=2pass / mbtree=1 / bitrate=11000 / ratetol=1.0 / qcomp=0.60 / qpmin=0 / qpmax=69 / qpstep=4 / cplxblur=20.0 / qblur=0.5 / ip_ratio=1.40 / aq=1:1.10
Language : Chinese
Default : Yes
Forced : No
Audio #1
ID : 2
Format : AC-3
Format/Info : Audio Coding 3
Mode extension : CM (complete main)
Format settings, Endianness : Big
Codec ID : A_AC3
Duration : 1 h 46 min
Bit rate mode : Constant
Bit rate : 448 kb/s
Channel(s) : 6 channels
Channel positions : Front: L C R, Side: L R, LFE
Sampling rate : 48.0 kHz
Frame rate : 31.250 FPS (1536 spf)
Compression mode : Lossy
Stream size : 342 MiB (3%)
Title : Многоголосый закадровый, Superbit
Language : Russian
Default : Yes
Forced : No
Audio #2
ID : 3
Format : AC-3
Format/Info : Audio Coding 3
Mode extension : CM (complete main)
Format settings, Endianness : Big
Codec ID : A_AC3
Duration : 1 h 46 min
Bit rate mode : Constant
Bit rate : 192 kb/s
Channel(s) : 2 channels
Channel positions : Front: L R
Sampling rate : 48.0 kHz
Frame rate : 31.250 FPS (1536 spf)
Compression mode : Lossy
Stream size : 147 MiB (1%)
Title : Многоголосый закадровый
Language : Russian
Default : No
Forced : No
Audio #3
ID : 4
Format : AC-3
Format/Info : Audio Coding 3
Mode extension : CM (complete main)
Format settings, Endianness : Big
Codec ID : A_AC3
Duration : 1 h 46 min
Bit rate mode : Constant
Bit rate : 192 kb/s
Channel(s) : 2 channels
Channel positions : Front: L R
Sampling rate : 48.0 kHz
Frame rate : 31.250 FPS (1536 spf)
Compression mode : Lossy
Stream size : 147 MiB (1%)
Title : Одноголосый закадровый, В.Горчаков
Language : Russian
Default : No
Forced : No
Audio #4
ID : 5
Format : AC-3
Format/Info : Audio Coding 3
Mode extension : CM (complete main)
Format settings, Endianness : Big
Codec ID : A_AC3
Duration : 1 h 46 min
Bit rate mode : Constant
Bit rate : 192 kb/s
Channel(s) : 2 channels
Channel positions : Front: L R
Sampling rate : 48.0 kHz
Frame rate : 31.250 FPS (1536 spf)
Compression mode : Lossy
Stream size : 147 MiB (1%)
Title : Одноголосый закадровый, Ю.Живов
Language : Russian
Default : No
Forced : No
Audio #5
ID : 6
Format : AC-3
Format/Info : Audio Coding 3
Mode extension : CM (complete main)
Format settings, Endianness : Big
Codec ID : A_AC3
Duration : 1 h 46 min
Bit rate mode : Constant
Bit rate : 448 kb/s
Channel(s) : 6 channels
Channel positions : Front: L C R, Side: L R, LFE
Sampling rate : 48.0 kHz
Frame rate : 31.250 FPS (1536 spf)
Compression mode : Lossy
Stream size : 342 MiB (3%)
Title : Одноголосый закадровый, В.Королев
Language : Russian
Default : No
Forced : No
Audio #6
ID : 7
Format : AC-3
Format/Info : Audio Coding 3
Mode extension : CM (complete main)
Format settings, Endianness : Big
Codec ID : A_AC3
Duration : 1 h 46 min
Bit rate mode : Constant
Bit rate : 448 kb/s
Channel(s) : 6 channels
Channel positions : Front: L C R, Side: L R, LFE
Sampling rate : 48.0 kHz
Frame rate : 31.250 FPS (1536 spf)
Compression mode : Lossy
Stream size : 342 MiB (3%)
Title : Китайский
Language : Chinese
Default : No
Forced : No
Text #1
ID : 8
Format : UTF-8
Codec ID : S_TEXT/UTF8
Codec ID/Info : UTF-8 Plain Text
Duration : 1 h 45 min
Bit rate : 50 b/s
Count of elements : 648
Stream size : 38.7 KiB (0%)
Language : Russian
Default : No
Forced : No
Text #2
ID : 9
Format : UTF-8
Codec ID : S_TEXT/UTF8
Codec ID/Info : UTF-8 Plain Text
Duration : 1 h 44 min
Bit rate : 21 b/s
Count of elements : 670
Stream size : 16.6 KiB (0%)
Language : English
Default : No
Forced : No
Menu
00:00:00.000 : en:Chapter 1
00:04:18.466 : en:Chapter 2
00:06:05.655 : en:Chapter 3
00:08:52.196 : en:Chapter 4
00:15:57.373 : en:Chapter 5
00:26:17.826 : en:Chapter 6
00:29:33.896 : en:Chapter 7
00:39:04.675 : en:Chapter 8
00:45:18.925 : en:Chapter 9
00:49:08.862 : en:Chapter 10
00:56:56.579 : en:Chapter 11
01:01:14.753 : en:Chapter 12
01:09:23.368 : en:Chapter 13
01:16:25.037 : en:Chapter 14
01:23:20.662 : en:Chapter 15
01:28:38.521 : en:Chapter 16
01:36:37.750 : en:Chapter 17
01:41:55.150 : en:Chapter 18

Путь дракона / The Way Of The Dragon / Meng Long Guo Jiang (1972) BDRip 1080p:


Год выпуска: 1972
Страна: Гонконг
Жанр: Боевик
Продолжительность: 01:38:40
Перевод: Профессиональный (многоголосый закадровый), Superbit
Перевод: Профессиональный (многоголосый закадровый), Twister
Перевод: Профессиональный (многоголосый закадровый), СТС
Перевод: Профессиональный (многоголосый закадровый), Ren-TV
Перевод: Авторский (одноголосый закадровый), В. Горчаков
Перевод: Авторский (одноголосый закадровый), Ю. Живов
Перевод: Авторский (одноголосый закадровый), В. Королёв
Cубтитры: Русские, английские
Режиссер: Брюс Ли
В ролях: Брюс Ли, Нора Миао, Чак Норрис, Вэй Пинао, Чун Синь Хуан, Роберт Уолл, Ван Вэнг, Тони Лю, Юникорн Чан, Мализа Лонго
О фильме: Тан приезжает из Гонконга в Рим, чтобы помочь друзьям семьи, чей ресторан задумали отобрать местные мафиози. Привыкшие всегда получать то, что захотят и не останавливаться ни перед чем, бандиты совершили большую ошибку, недооценив с виду скромного молодого человека.
Не сумев справиться с ним своими силами, мафиози нанимают лучших европейских и японских мастеров боевых искусств, но Тан с легкостью побеждает всех. И тогда против него на арену древнего Колизея выходит «крутой и смертоносный» американец Колт.

Качество: BDRip 1080p
Формат: MKV
Видео кодек: H264
Аудио кодек: AC3
Видео: MPEG4 Video (H264), 1920x816, 23.976fps, 11.0 Mbps
Аудио #01: Русский: Dolby AC3, 48000 Hz, 6ch, 448kbps - Многоголосый, Superbit
Аудио #02: Русский: Dolby AC3, 48000 Hz, 6ch, 384kbps - Многоголосый, Twister
Аудио #03: Русский: Dolby AC3, 48000 Hz, 2ch, 192kbps - Многоголосый, СТС
Аудио #04: Русский: Dolby AC3, 48000 Hz, 2ch, 192kbps - Многоголосый, Ren-TV
Аудио #05: Русский: Dolby AC3, 48000 Hz, 2ch, 192kbps - Одноголосый, В. Горчаков
Аудио #06: Русский: Dolby AC3, 48000 Hz, 2ch, 192kbps - Одноголосый, Ю. Живов
Аудио #07: Русский: Dolby AC3, 48000 Hz, 6ch, 448kbps - Одноголосый, В. Королёв
Аудио #08: Украинский: Dolby AC3, 48000 Hz, 2ch, 192kbps - Многоголосый
Аудио #09: Китайский: Dolby AC3, 48000 Hz, 6ch, 448kbps
Формат субтитров: softsub (SRT)
Сэмпл
MediaInfo: General
Unique ID : 179898381938706207767448896964907517267 (0x87572B06C88D8803AB006210200C4553)
Complete name : F:Torrent 21971-1978.Bruce.Lee.renta231972 Путь Дракона.mkv
Format : Matroska
Format version : Version 4 / Version 2
File size : 9.44 GiB
Duration : 1 h 38 min
Overall bit rate : 13.7 Mb/s
Movie name : Путь дракона 1972/renta23
Encoded date : UTC 2015-04-11 12:01:23
Writing application : mkvmerge v7.8.0 ('River Man') 32bit built on Mar 27 2015 16:18:02
Writing library : libebml v1.3.1 + libmatroska v1.4.2
Video
ID : 1
Format : AVC
Format/Info : Advanced Video Codec
Format profile : High@L4.1
Format settings, CABAC : Yes
Format settings, ReFrames : 3 frames
Codec ID : V_MPEG4/ISO/AVC
Duration : 1 h 38 min
Bit rate : 11.0 Mb/s
Width : 1 920 pixels
Height : 816 pixels
Display aspect ratio : 2.35:1
Frame rate mode : Constant
Frame rate : 23.976 (24000/1001) FPS
Color space : YUV
Chroma subsampling : 4:2:0
Bit depth : 8 bits
Scan type : Progressive
Bits/(Pixel*Frame) : 0.293
Stream size : 7.58 GiB (80%)
Title : Путь дракона 1972
Writing library : x264 core 125 r2208 d9d2288
Encoding settings : cabac=1 / ref=4 / deblock=1:-1:-1 / analyse=0x3:0x133 / me=umh / subme=11 / psy=1 / psy_rd=1.10:0.15 / mixed_ref=1 / me_range=24 / chroma_me=1 / trellis=2 / 8x8dct=1 / cqm=0 / deadzone=21,11 / fast_pskip=0 / chroma_qp_offset=-3 / threads=12 / lookahead_threads=2 / sliced_threads=0 / nr=0 / decimate=1 / interlaced=0 / bluray_compat=0 / constrained_intra=0 / bframes=12 / b_pyramid=1 / b_adapt=2 / b_bias=0 / direct=3 / weightb=1 / open_gop=0 / weightp=2 / keyint=250 / keyint_min=23 / scenecut=40 / intra_refresh=0 / rc_lookahead=50 / rc=2pass / mbtree=1 / bitrate=11000 / ratetol=1.0 / qcomp=0.60 / qpmin=0 / qpmax=69 / qpstep=4 / cplxblur=20.0 / qblur=0.5 / ip_ratio=1.40 / aq=1:1.10
Language : Chinese
Default : Yes
Forced : No
Audio #1
ID : 2
Format : AC-3
Format/Info : Audio Coding 3
Mode extension : CM (complete main)
Format settings, Endianness : Big
Codec ID : A_AC3
Duration : 1 h 38 min
Bit rate mode : Constant
Bit rate : 448 kb/s
Channel(s) : 6 channels
Channel positions : Front: L C R, Side: L R, LFE
Sampling rate : 48.0 kHz
Frame rate : 31.250 FPS (1536 spf)
Compression mode : Lossy
Stream size : 316 MiB (3%)
Title : Многоголосый закадровый, Superbit
Language : Russian
Default : Yes
Forced : No
Audio #2
ID : 3
Format : AC-3
Format/Info : Audio Coding 3
Mode extension : CM (complete main)
Format settings, Endianness : Big
Codec ID : A_AC3
Duration : 1 h 38 min
Bit rate mode : Constant
Bit rate : 384 kb/s
Channel(s) : 6 channels
Channel positions : Front: L C R, Side: L R, LFE
Sampling rate : 48.0 kHz
Frame rate : 31.250 FPS (1536 spf)
Compression mode : Lossy
Stream size : 271 MiB (3%)
Title : Многоголосый закадровый, Twister
Language : Russian
Default : No
Forced : No
Audio #3
ID : 4
Format : AC-3
Format/Info : Audio Coding 3
Mode extension : CM (complete main)
Format settings, Endianness : Big
Codec ID : A_AC3
Duration : 1 h 38 min
Bit rate mode : Constant
Bit rate : 192 kb/s
Channel(s) : 2 channels
Channel positions : Front: L R
Sampling rate : 48.0 kHz
Frame rate : 31.250 FPS (1536 spf)
Compression mode : Lossy
Stream size : 135 MiB (1%)
Title : Многоголосый закадровый, СТС
Language : Russian
Default : No
Forced : No
Audio #4
ID : 5
Format : AC-3
Format/Info : Audio Coding 3
Mode extension : CM (complete main)
Format settings, Endianness : Big
Codec ID : A_AC3
Duration : 1 h 38 min
Bit rate mode : Constant
Bit rate : 192 kb/s
Channel(s) : 2 channels
Channel positions : Front: L R
Sampling rate : 48.0 kHz
Frame rate : 31.250 FPS (1536 spf)
Compression mode : Lossy
Stream size : 135 MiB (1%)
Title : Многоголосый закадровый, Ren-TV
Language : Russian
Default : No
Forced : No
Audio #5
ID : 6
Format : AC-3
Format/Info : Audio Coding 3
Mode extension : CM (complete main)
Format settings, Endianness : Big
Codec ID : A_AC3
Duration : 1 h 38 min
Bit rate mode : Constant
Bit rate : 192 kb/s
Channel(s) : 2 channels
Channel positions : Front: L R
Sampling rate : 48.0 kHz
Frame rate : 31.250 FPS (1536 spf)
Compression mode : Lossy
Stream size : 135 MiB (1%)
Title : Одноголосый закадровый, В. Горчаков
Language : Russian
Default : No
Forced : No
Audio #6
ID : 7
Format : AC-3
Format/Info : Audio Coding 3
Mode extension : CM (complete main)
Format settings, Endianness : Big
Codec ID : A_AC3
Duration : 1 h 38 min
Bit rate mode : Constant
Bit rate : 192 kb/s
Channel(s) : 2 channels
Channel positions : Front: L R
Sampling rate : 48.0 kHz
Frame rate : 31.250 FPS (1536 spf)
Compression mode : Lossy
Stream size : 135 MiB (1%)
Title : Одноголосый закадровый, Ю. Живов
Language : Russian
Default : No
Forced : No
Audio #7
ID : 8
Format : AC-3
Format/Info : Audio Coding 3
Mode extension : CM (complete main)
Format settings, Endianness : Big
Codec ID : A_AC3
Duration : 1 h 38 min
Bit rate mode : Constant
Bit rate : 448 kb/s
Channel(s) : 6 channels
Channel positions : Front: L C R, Side: L R, LFE
Sampling rate : 48.0 kHz
Frame rate : 31.250 FPS (1536 spf)
Compression mode : Lossy
Stream size : 316 MiB (3%)
Title : Одноголосый закадровый, В. Королёв
Language : Russian
Default : No
Forced : No
Audio #8
ID : 9
Format : AC-3
Format/Info : Audio Coding 3
Mode extension : CM (complete main)
Format settings, Endianness : Big
Codec ID : A_AC3
Duration : 1 h 38 min
Bit rate mode : Constant
Bit rate : 192 kb/s
Channel(s) : 2 channels
Channel positions : Front: L R
Sampling rate : 48.0 kHz
Frame rate : 31.250 FPS (1536 spf)
Compression mode : Lossy
Stream size : 135 MiB (1%)
Title : Многоголосый закадровый
Language : Ukrainian
Default : No
Forced : No
Audio #9
ID : 10
Format : AC-3
Format/Info : Audio Coding 3
Mode extension : CM (complete main)
Format settings, Endianness : Big
Codec ID : A_AC3
Duration : 1 h 38 min
Bit rate mode : Constant
Bit rate : 448 kb/s
Channel(s) : 6 channels
Channel positions : Front: L C R, Side: L R, LFE
Sampling rate : 48.0 kHz
Frame rate : 31.250 FPS (1536 spf)
Compression mode : Lossy
Stream size : 316 MiB (3%)
Language : Chinese
Default : No
Forced : No
Text #1
ID : 11
Format : UTF-8
Codec ID : S_TEXT/UTF8
Codec ID/Info : UTF-8 Plain Text
Duration : 1 h 37 min
Bit rate : 46 b/s
Count of elements : 642
Stream size : 33.1 KiB (0%)
Language : Russian
Default : No
Forced : No
Text #2
ID : 12
Format : UTF-8
Codec ID : S_TEXT/UTF8
Codec ID/Info : UTF-8 Plain Text
Duration : 1 h 34 min
Bit rate : 22 b/s
Count of elements : 595
Stream size : 15.7 KiB (0%)
Language : English
Default : No
Forced : No
Menu
00:00:00.000 : en:Chapter 1
00:02:10.921 : en:Chapter 2
00:12:11.605 : en:Chapter 3
00:17:37.056 : en:Chapter 4
00:20:49.455 : en:Chapter 5
00:28:57.359 : en:Chapter 6
00:35:07.313 : en:Chapter 7
00:40:19.250 : en:Chapter 8
00:42:13.322 : en:Chapter 9
00:43:59.302 : en:Chapter 10
00:45:22.385 : en:Chapter 11
00:47:07.199 : en:Chapter 12
00:55:39.918 : en:Chapter 13
01:02:06.304 : en:Chapter 14
01:08:17.426 : en:Chapter 15
01:11:37.667 : en:Chapter 16
01:14:07.317 : en:Chapter 17
01:21:06.485 : en:Chapter 18
01:34:34.917 : en:Chapter 19
01:36:15.728 : en:Chapter 20

Выход Дракона / Enter The Dragon (1973) BDRip 1080p:


Год выпуска: 1973
Страна: США, Гонконг
Жанр: Боевик
Продолжительность: 01:42:33
Перевод: Профессиональный (полное дублирование)
Перевод: Профессиональный (многоголосый закадровый), Superbit
Перевод: Авторский (одноголосый закадровый), В. Королев
Перевод: Авторский (одноголосый закадровый), Л. Володарский
Перевод: Авторский (одноголосый закадровый), А. Михалёв
Перевод: Авторский (одноголосый закадровый), Ю. Толбин
Перевод: Авторский (одноголосый закадровый), Ю. Живов
Перевод: Авторский (одноголосый закадровый), В. Горчаков
Перевод: Авторский (одноголосый закадровый), Jakob Bellmann
Cубтитры: Русские, английские
Режиссер: Роберт Клауз
В ролях: Брюс Ли, Джон Саксон, Анджела Мао, Джим Келли, Роберт Уолл, Боло Йенг, Бетти Чунг, Джеффри Викс, Питер Арчер, Хо Ли Ян, Марлен Кларк, Аллан Кент, Уильям Келлер, Мики Карузо, Пэт Э. Джонсон, Дарнелл Гарсиа, Джеки Чан
О фильме: Его яростная манера боя не знала себе равных. Его боевой дух был неукротим. Хотя прошло уже много лет с момента его ранней смерти, Брюс Ли остается по-прежнему самой яркой суперзвездой боевых искусств. «Выход Дракона» — последний из фильмов, в которых снялся легендарный Брюс Ли.
Именно на съемках этого фильма операторы были вынуждены пользоваться специальной аппаратурой, потому что обычные кинокамеры не успевали зафиксировать молниеносный удар Дракона.
События переносят нас на остров, превращенный в крепость главарем боевиков, открывшим там школу боевых искусств, которая является лишь ширмой, маскирующей контрабандный бизнес.
В эту цитадель проникает герой Брюса Ли и становится участником жестокого турнира...

Качество: BDRip 1080p
Формат: MKV
Видеокодек: H264
Аудиокодек: AC3
Видео: MPEG4 Video (H264), 1920x800, 23.976fps, 12.5 Mbps
Аудио #01: Русский: Dolby AC3, 48000 Hz, 6ch, 448 kbps - Дубляж
Аудио #02: Русский: Dolby AC3, 48000 Hz, 6ch, 448 kbps - Многоголосый, Superbit
Аудио #03: Русский: Dolby AC3, 48000 Hz, 6ch, 448 kbps - Одноголосый, В. Королев
Аудио #04: Русский: Dolby AC3, 48000 Hz, 2ch, 192 kbps - Одноголосый, Л. Володарский
Аудио #05: Русский: Dolby AC3, 48000 Hz, 2ch, 192 kbps - Одноголосый, А. Михалёв
Аудио #06: Русский: Dolby AC3, 48000 Hz, 2ch, 192 kbps - Одноголосый, Ю. Толбин
Аудио #07: Русский: Dolby AC3, 48000 Hz, 6ch, 640 kbps - Одноголосый, Ю. Живов
Аудио #08: Русский: Dolby AC3, 48000 Hz, 6ch, 640 kbps - Одноголосый, В. Горчаков
Аудио #09: Русский: Dolby AC3, 48000 Hz, 6ch, 448 kbps - Одноголосый, Jakob Bellmann
Аудио #10: Аеглийский: Dolby AC3, 48000 Hz, 6ch, 640 kbps
Формат субтитров: softsub (SRT)
Сэмпл
MediaInfo:
General
Unique ID : 178796547052103002109279811030601963281 (0x8682F65F539CCBBDAE55C46A05181711)
Complete name : F:Torrent 21971-1978.Bruce.Lee.renta231973 Выход Дракона.mkv
Format : Matroska
Format version : Version 4 / Version 2
File size : 12.0 GiB
Duration : 1 h 42 min
Overall bit rate : 16.8 Mb/s
Movie name : 1973 Выход Дракона/renta23
Encoded date : UTC 2015-04-10 07:35:41
Writing application : mkvmerge v7.8.0 ('River Man') 32bit built on Mar 27 2015 16:18:02
Writing library : libebml v1.3.1 + libmatroska v1.4.2
Video
ID : 1
Format : AVC
Format/Info : Advanced Video Codec
Format profile : High@L4.1
Format settings, CABAC : Yes
Format settings, ReFrames : 3 frames
Codec ID : V_MPEG4/ISO/AVC
Duration : 1 h 42 min
Bit rate : 12.5 Mb/s
Width : 1 920 pixels
Height : 800 pixels
Display aspect ratio : 2.40:1
Frame rate mode : Constant
Frame rate : 23.976 (24000/1001) FPS
Color space : YUV
Chroma subsampling : 4:2:0
Bit depth : 8 bits
Scan type : Progressive
Bits/(Pixel*Frame) : 0.339
Stream size : 8.96 GiB (74%)
Title : 1973 Выход Дракона
Writing library : x264 core 125 r2208 d9d2288
Encoding settings : cabac=1 / ref=4 / deblock=1:-1:-1 / analyse=0x3:0x133 / me=umh / subme=11 / psy=1 / psy_rd=1.10:0.15 / mixed_ref=1 / me_range=24 / chroma_me=1 / trellis=2 / 8x8dct=1 / cqm=0 / deadzone=21,11 / fast_pskip=0 / chroma_qp_offset=-3 / threads=12 / lookahead_threads=2 / sliced_threads=0 / nr=0 / decimate=1 / interlaced=0 / bluray_compat=0 / constrained_intra=0 / bframes=12 / b_pyramid=1 / b_adapt=2 / b_bias=0 / direct=3 / weightb=1 / open_gop=0 / weightp=2 / keyint=250 / keyint_min=23 / scenecut=40 / intra_refresh=0 / rc_lookahead=50 / rc=2pass / mbtree=1 / bitrate=12500 / ratetol=1.0 / qcomp=0.60 / qpmin=0 / qpmax=69 / qpstep=4 / cplxblur=20.0 / qblur=0.5 / ip_ratio=1.40 / aq=1:1.10
Language : Chinese
Default : Yes
Forced : No
Audio #1
ID : 2
Format : AC-3
Format/Info : Audio Coding 3
Mode extension : CM (complete main)
Format settings, Endianness : Big
Codec ID : A_AC3
Duration : 1 h 42 min
Bit rate mode : Constant
Bit rate : 448 kb/s
Channel(s) : 6 channels
Channel positions : Front: L C R, Side: L R, LFE
Sampling rate : 48.0 kHz
Frame rate : 31.250 FPS (1536 spf)
Compression mode : Lossy
Stream size : 329 MiB (3%)
Title : Дубляж
Language : Russian
Default : Yes
Forced : No
Audio #2
ID : 3
Format : AC-3
Format/Info : Audio Coding 3
Mode extension : CM (complete main)
Format settings, Endianness : Big
Codec ID : A_AC3
Duration : 1 h 42 min
Bit rate mode : Constant
Bit rate : 448 kb/s
Channel(s) : 6 channels
Channel positions : Front: L C R, Side: L R, LFE
Sampling rate : 48.0 kHz
Frame rate : 31.250 FPS (1536 spf)
Compression mode : Lossy
Stream size : 329 MiB (3%)
Title : Многоголосый закадровый, Superbit
Language : Russian
Default : No
Forced : No
Audio #3
ID : 4
Format : AC-3
Format/Info : Audio Coding 3
Mode extension : CM (complete main)
Format settings, Endianness : Big
Codec ID : A_AC3
Duration : 1 h 42 min
Bit rate mode : Constant
Bit rate : 448 kb/s
Channel(s) : 6 channels
Channel positions : Front: L C R, Side: L R, LFE
Sampling rate : 48.0 kHz
Frame rate : 31.250 FPS (1536 spf)
Compression mode : Lossy
Stream size : 329 MiB (3%)
Title : Одноголосый закадровый, В.Королев
Language : Russian
Default : No
Forced : No
Audio #4
ID : 5
Format : AC-3
Format/Info : Audio Coding 3
Mode extension : CM (complete main)
Format settings, Endianness : Big
Codec ID : A_AC3
Duration : 1 h 42 min
Bit rate mode : Constant
Bit rate : 192 kb/s
Channel(s) : 2 channels
Channel positions : Front: L R
Sampling rate : 48.0 kHz
Frame rate : 31.250 FPS (1536 spf)
Compression mode : Lossy
Stream size : 141 MiB (1%)
Title : Одноголосый закадровый, Л.Володарский
Language : Russian
Default : No
Forced : No
Audio #5
ID : 6
Format : AC-3
Format/Info : Audio Coding 3
Mode extension : CM (complete main)
Format settings, Endianness : Big
Codec ID : A_AC3
Duration : 1 h 42 min
Bit rate mode : Constant
Bit rate : 192 kb/s
Channel(s) : 2 channels
Channel positions : Front: L R
Sampling rate : 48.0 kHz
Frame rate : 31.250 FPS (1536 spf)
Compression mode : Lossy
Stream size : 141 MiB (1%)
Title : Одноголосый закадровый, А.Михалёв
Language : Russian
Default : No
Forced : No
Audio #6
ID : 7
Format : AC-3
Format/Info : Audio Coding 3
Mode extension : CM (complete main)
Format settings, Endianness : Big
Codec ID : A_AC3
Duration : 1 h 42 min
Bit rate mode : Constant
Bit rate : 192 kb/s
Channel(s) : 2 channels
Channel positions : Front: L R
Sampling rate : 48.0 kHz
Frame rate : 31.250 FPS (1536 spf)
Compression mode : Lossy
Stream size : 141 MiB (1%)
Title : Одноголосый закадровый, Ю.Толбин
Language : Russian
Default : No
Forced : No
Audio #7
ID : 8
Format : AC-3
Format/Info : Audio Coding 3
Mode extension : CM (complete main)
Format settings, Endianness : Big
Codec ID : A_AC3
Duration : 1 h 42 min
Bit rate mode : Constant
Bit rate : 640 kb/s
Channel(s) : 6 channels
Channel positions : Front: L C R, Side: L R, LFE
Sampling rate : 48.0 kHz
Frame rate : 31.250 FPS (1536 spf)
Compression mode : Lossy
Stream size : 469 MiB (4%)
Title : Одноголосый закадровый, Ю.Живов
Language : Russian
Default : No
Forced : No
Audio #8
ID : 9
Format : AC-3
Format/Info : Audio Coding 3
Mode extension : CM (complete main)
Format settings, Endianness : Big
Codec ID : A_AC3
Duration : 1 h 42 min
Bit rate mode : Constant
Bit rate : 640 kb/s
Channel(s) : 6 channels
Channel positions : Front: L C R, Side: L R, LFE
Sampling rate : 48.0 kHz
Frame rate : 31.250 FPS (1536 spf)
Compression mode : Lossy
Stream size : 469 MiB (4%)
Title : Одноголосый закадровый, В.Горчаков
Language : Russian
Default : No
Forced : No
Audio #9
ID : 10
Format : AC-3
Format/Info : Audio Coding 3
Mode extension : CM (complete main)
Format settings, Endianness : Big
Codec ID : A_AC3
Duration : 1 h 42 min
Bit rate mode : Constant
Bit rate : 448 kb/s
Channel(s) : 6 channels
Channel positions : Front: L C R, Side: L R, LFE
Sampling rate : 48.0 kHz
Frame rate : 31.250 FPS (1536 spf)
Compression mode : Lossy
Stream size : 329 MiB (3%)
Title : Одноголосый закадровый, Jakob Bellmann
Language : Russian
Default : No
Forced : No
Audio #10
ID : 11
Format : AC-3
Format/Info : Audio Coding 3
Mode extension : CM (complete main)
Format settings, Endianness : Big
Codec ID : A_AC3
Duration : 1 h 42 min
Bit rate mode : Constant
Bit rate : 640 kb/s
Channel(s) : 6 channels
Channel positions : Front: L C R, Side: L R, LFE
Sampling rate : 48.0 kHz
Frame rate : 31.250 FPS (1536 spf)
Compression mode : Lossy
Stream size : 469 MiB (4%)
Language : English
Default : No
Forced : No
Text #1
ID : 12
Format : UTF-8
Codec ID : S_TEXT/UTF8
Codec ID/Info : UTF-8 Plain Text
Duration : 1 h 39 min
Bit rate : 31 b/s
Count of elements : 514
Stream size : 22.8 KiB (0%)
Language : Russian
Default : No
Forced : No
Text #2
ID : 13
Format : UTF-8
Codec ID : S_TEXT/UTF8
Codec ID/Info : UTF-8 Plain Text
Duration : 1 h 39 min
Bit rate : 22 b/s
Count of elements : 481
Stream size : 16.3 KiB (0%)
Language : English
Default : No
Forced : No
Menu
00:00:00.000 : en:The Winner
00:02:29.316 : en:A Martial Artist's Responsibility
00:05:28.495 : en:Emotional Content
00:08:26.338 : en:Honk Kong Arrivals
00:10:40.638 : en:Background on Han
00:14:39.211 : en:Su Lin's Tragedy
00:20:16.214 : en:Roper: A Betting Man
00:25:08.339 : en:Williams on the Run
00:27:40.992 : en:Odds on Insects
00:31:34.058 : en:Parsons Takes a Ride
00:34:03.875 : en:Han's Hospitalit
00:39:00.170 : en:Fattened for the Kill?
00:41:53.677 : en:After-Hours Menu
00:45:21.052 : en:Morning Ritual
00:46:35.458 : en:"Let the Tournament Begin"
00:50:48.210 : en:Midnight Exploration
00:55:11.474 : en:Caught in the Act
00:57:56.306 : en:Punishment
01:00:36.131 : en:Lee vs. Oharra
01:05:27.923 : en:Willams vs. Han
01:09:00.302 : en:Roper's Limit
01:11:25.280 : en:Clear Understanding
01:16:01.055 : en:Radio Room Raid
01:20:09.970 : en:Cavern Combat
01:25:09.104 : en:Roper vs. Bolo
01:28:51.658 : en:Fighting Frenzy
01:31:37.158 : en:Lee vs. Han
01:35:14.542 : en:Reflection of Death
01:40:24.018 : en:Thumbs Up

Игра смерти / Game Of Death (1978) BDRip 1080p:


Год выпуска: 1978
Страна: Гонконг, США
Жанр: Боевик
Продолжительность: 01:41:07
Перевод: Профессиональный (многоголосый закадровый), Superbit
Перевод: Авторский (одноголосый закадровый), В. Горчаков
Перевод: Авторский (одноголосый закадровый), Ю. Живов
Перевод: Авторский (одноголосый закадровый), М. Иванов
Перевод: Авторский (одноголосый закадровый), С. Кузнецов
Перевод: Авторский (одноголосый закадровый), А. Кашкин
Перевод: Авторский (одноголосый закадровый), В. Королёв
Режиссер: Роберт Клауз, Саммо Хунг Кам-Бо, Брюс Ли
В ролях: Брюс Ли, Коллин Кэмп, Дин Джэггер, Гиг Янг, Таи Чунг Ким, Юэнь Бяо, Роберт Уолл, Карим Абдул-Джаббар, Мел Новак, Хью О’Брайан
Описание: Преступный синдикат зловещего доктора Лэнда контролирует гонконгский шоу-бизнес: все артисты обязаны отчислять мафии немалые суммы со всех своих доходов. Молодой актер Билли Ло вступает в борьбу с преступным синдикатом.

Качество: BDRip 1080p
Формат: MKV
Видео кодек: H264
Аудио кодек: AC3
Видео: MPEG4 Video (H264), 1920x816, 23.976fps, 11.0 Mbps
Аудио #01: Русский: Dolby AC3, 48000 Hz, 6ch, 448 kbps - Многоголосый, Superbit
Аудио #02: Русский: Dolby AC3, 48000 Hz, 2ch, 192 kbps [A: Одноголосый закадровый, В. Горчаков
Аудио #03: Русский: Dolby AC3, 48000 Hz, 2ch, 192 kbps [A: Одноголосый закадровый, Ю. Живов
Аудио #04: Русский: Dolby AC3, 48000 Hz, 2ch, 192 kbps [A: Одноголосый закадровый, М. Иванов
Аудио #05: Русский: Dolby AC3, 48000 Hz, 2ch, 192 kbps [A: Одноголосый закадровый, С. Кузнецов
Аудио #06: Русский: Dolby AC3, 48000 Hz, 6ch, 448 kbps [A: Одноголосый закадровый, А. Кашкин
Аудио #07: Русский: Dolby AC3, 48000 Hz, 6ch, 448 kbps [A: Одноголосый закадровый, В. Королёв
Аудио #08: Английский: Dolby AC3, 48000 Hz, 6ch, 448 kbps
Сэмпл
MediaInfo: General
Unique ID : 213873947008312291539974458833268371211 (0xA0E69FB70AED8AC2A84BD7CB149FEF0B)
Complete name : F:Torrent 21971-1978.Bruce.Lee.renta231978 Игра смерти.mkv
Format : Matroska
Format version : Version 4 / Version 2
File size : 9.57 GiB
Duration : 1 h 41 min
Overall bit rate : 13.6 Mb/s
Movie name : 1978 Игра смерти/renta23
Encoded date : UTC 2015-04-10 07:00:26
Writing application : mkvmerge v7.8.0 ('River Man') 32bit built on Mar 27 2015 16:18:02
Writing library : libebml v1.3.1 + libmatroska v1.4.2
Video
ID : 1
Format : AVC
Format/Info : Advanced Video Codec
Format profile : High@L4.1
Format settings, CABAC : Yes
Format settings, ReFrames : 3 frames
Codec ID : V_MPEG4/ISO/AVC
Duration : 1 h 41 min
Bit rate : 11.0 Mb/s
Width : 1 920 pixels
Height : 816 pixels
Display aspect ratio : 2.35:1
Frame rate mode : Constant
Frame rate : 23.976 (24000/1001) FPS
Color space : YUV
Chroma subsampling : 4:2:0
Bit depth : 8 bits
Scan type : Progressive
Bits/(Pixel*Frame) : 0.293
Stream size : 7.77 GiB (81%)
Title : 1978 Игра смерти
Writing library : x264 core 125 r2208 d9d2288
Encoding settings : cabac=1 / ref=4 / deblock=1:-1:-1 / analyse=0x3:0x133 / me=umh / subme=11 / psy=1 / psy_rd=1.10:0.15 / mixed_ref=1 / me_range=24 / chroma_me=1 / trellis=2 / 8x8dct=1 / cqm=0 / deadzone=21,11 / fast_pskip=0 / chroma_qp_offset=-3 / threads=12 / lookahead_threads=2 / sliced_threads=0 / nr=0 / decimate=1 / interlaced=0 / bluray_compat=0 / constrained_intra=0 / bframes=12 / b_pyramid=1 / b_adapt=2 / b_bias=0 / direct=3 / weightb=1 / open_gop=0 / weightp=2 / keyint=250 / keyint_min=23 / scenecut=40 / intra_refresh=0 / rc_lookahead=50 / rc=2pass / mbtree=1 / bitrate=11000 / ratetol=1.0 / qcomp=0.60 / qpmin=0 / qpmax=69 / qpstep=4 / cplxblur=20.0 / qblur=0.5 / ip_ratio=1.40 / aq=1:1.10
Language : English
Default : Yes
Forced : No
Audio #1
ID : 2
Format : AC-3
Format/Info : Audio Coding 3
Mode extension : CM (complete main)
Format settings, Endianness : Big
Codec ID : A_AC3
Duration : 1 h 40 min
Bit rate mode : Constant
Bit rate : 448 kb/s
Channel(s) : 6 channels
Channel positions : Front: L C R, Side: L R, LFE
Sampling rate : 48.0 kHz
Frame rate : 31.250 FPS (1536 spf)
Compression mode : Lossy
Stream size : 323 MiB (3%)
Title : Многоголосый закадровый, Superbit
Language : Russian
Default : Yes
Forced : No
Audio #2
ID : 3
Format : AC-3
Format/Info : Audio Coding 3
Mode extension : CM (complete main)
Format settings, Endianness : Big
Codec ID : A_AC3
Duration : 1 h 40 min
Bit rate mode : Constant
Bit rate : 192 kb/s
Channel(s) : 2 channels
Channel positions : Front: L R
Sampling rate : 48.0 kHz
Frame rate : 31.250 FPS (1536 spf)
Compression mode : Lossy
Stream size : 138 MiB (1%)
Title : Одноголосый закадровый, В. Горчаков
Language : Russian
Default : No
Forced : No
Audio #3
ID : 4
Format : AC-3
Format/Info : Audio Coding 3
Mode extension : CM (complete main)
Format settings, Endianness : Big
Codec ID : A_AC3
Duration : 1 h 40 min
Bit rate mode : Constant
Bit rate : 192 kb/s
Channel(s) : 2 channels
Channel positions : Front: L R
Sampling rate : 48.0 kHz
Frame rate : 31.250 FPS (1536 spf)
Compression mode : Lossy
Stream size : 138 MiB (1%)
Title : Одноголосый закадровый, Ю. Живов
Language : Russian
Default : No
Forced : No
Audio #4
ID : 5
Format : AC-3
Format/Info : Audio Coding 3
Mode extension : CM (complete main)
Format settings, Endianness : Big
Codec ID : A_AC3
Duration : 1 h 40 min
Bit rate mode : Constant
Bit rate : 192 kb/s
Channel(s) : 2 channels
Channel positions : Front: L R
Sampling rate : 48.0 kHz
Frame rate : 31.250 FPS (1536 spf)
Compression mode : Lossy
Stream size : 138 MiB (1%)
Title : Одноголосый закадровый, М. Иванов
Language : Russian
Default : No
Forced : No
Audio #5
ID : 6
Format : AC-3
Format/Info : Audio Coding 3
Mode extension : CM (complete main)
Format settings, Endianness : Big
Codec ID : A_AC3
Duration : 1 h 40 min
Bit rate mode : Constant
Bit rate : 192 kb/s
Channel(s) : 2 channels
Channel positions : Front: L R
Sampling rate : 48.0 kHz
Frame rate : 31.250 FPS (1536 spf)
Compression mode : Lossy
Stream size : 138 MiB (1%)
Title : Одноголосый закадровый, С. Кузнецов
Language : Russian
Default : No
Forced : No
Audio #6
ID : 7
Format : AC-3
Format/Info : Audio Coding 3
Mode extension : CM (complete main)
Format settings, Endianness : Big
Codec ID : A_AC3
Duration : 1 h 40 min
Bit rate mode : Constant
Bit rate : 448 kb/s
Channel(s) : 6 channels
Channel positions : Front: L C R, Side: L R, LFE
Sampling rate : 48.0 kHz
Frame rate : 31.250 FPS (1536 spf)
Compression mode : Lossy
Stream size : 323 MiB (3%)
Title : Одноголосый закадровый, А. Кашкин
Language : Russian
Default : No
Forced : No
Audio #7
ID : 8
Format : AC-3
Format/Info : Audio Coding 3
Mode extension : CM (complete main)
Format settings, Endianness : Big
Codec ID : A_AC3
Duration : 1 h 40 min
Bit rate mode : Constant
Bit rate : 448 kb/s
Channel(s) : 6 channels
Channel positions : Front: L C R, Side: L R, LFE
Sampling rate : 48.0 kHz
Frame rate : 31.250 FPS (1536 spf)
Compression mode : Lossy
Stream size : 323 MiB (3%)
Title : Одноголосый закадровый, В. Королёв
Language : Russian
Default : No
Forced : No
Audio #8
ID : 9
Format : AC-3
Format/Info : Audio Coding 3
Mode extension : CM (complete main)
Format settings, Endianness : Big
Codec ID : A_AC3
Duration : 1 h 40 min
Bit rate mode : Constant
Bit rate : 448 kb/s
Channel(s) : 6 channels
Channel positions : Front: L C R, Side: L R, LFE
Sampling rate : 48.0 kHz
Frame rate : 31.250 FPS (1536 spf)
Compression mode : Lossy
Stream size : 323 MiB (3%)
Title : Английский
Language : English
Default : No
Forced : No
Menu
00:00:00.000 : en:Chapter 1
00:04:56.129 : en:Chapter 2
00:08:32.678 : en:Chapter 3
00:12:35.378 : en:Chapter 4
00:20:15.548 : en:Chapter 5
00:24:53.157 : en:Chapter 6
00:30:48.180 : en:Chapter 7
00:40:01.106 : en:Chapter 8
00:52:03.119 : en:Chapter 9
01:02:35.085 : en:Chapter 10
01:08:47.707 : en:Chapter 11
01:12:21.170 : en:Chapter 12
01:20:52.180 : en:Chapter 13
01:25:47.684 : en:Chapter 14
01:28:25.759 : en:Chapter 15
01:33:37.737 : en:Chapter 16
01:36:03.466 : en:Chapter 17
01:38:08.591 : en:Chapter 18


[Профиль] [ЛС]
Кто просматривает тему:

Форум Тема Автор Размер
Шансон, авторская и военная песня (Author's Song) Владимир Высоцкий - Коллекция (New Sound) [15] - 2005 - 2007, MP3 (tracks+image) , 320 kbps sergej644 2.07 GB
Шансон, авторская и военная песня (Author's Song) Владимир Высоцкий в записях Михаила Шемякина (7CD) - Коллекция - 1996 [MP3, tracks, 320 kbps] sergej644 939 MB
Author's Song (Author's Song) Владимир Высоцкий. Спасибо, что живой (Коллекция изд. Амфора, 11 CD) 2011 - 2012, FLAC (image + .cue), lossless sergej644 2.53 GB
Шансон, авторская и военная песня (Author's Song) Владимир Высоцкий. Спасибо, что живой (Коллекция изд. Амфора, 11 CD) 2011 - 2012, [MP3, tracks, 320 kbps] sergej644 1.05 GB
Vinyl-Rip и Hand-Made (Chanson) [LP] [32\192] Александр Новиков • Коллекция (4 LP) - 1984-1992, WavPack (image+.cue) sergej644 8.09 GB
Шансон, авторская и военная песня (Chanson) Иван Кучин - Коллекция(31) 1987 - 2013,MP3, 320 kbps sergej644 5.01 GB
Сhanson (Chanson) Лепс Григорий - Лучшее (Золотая коллекция)(2CD) - 2009, MP3, 320 kbps sergej644 357 MB
Шансон, авторская и военная песня (Chanson)Любавин Сергей - Коллекция(19) 1996 - 2012, MP3, 320 kbps sergej644 2.93 GB
Показать сообщения:    

Текущее время: Сегодня 00:18

Часовой пояс: GMT



Вы не можете начинать темы
Вы не можете отвечать на сообщения
Вы не можете редактировать свои сообщения
Вы не можете удалять свои сообщения
Вы не можете голосовать в опросах
Вы не можете прикреплять файлы к сообщениям
Вы не можете скачивать файлы