Кокон / Cocoon (1985) BDRip 1080p | D, P, P2, A

 
Автор Сообщение

BOSS ®

Пол:

Стаж: 3 года 1 месяц

Сообщений: 8254

Откуда: ODESSA



Награды: 22 (Подробнее)

Top Releaser 5 (Количество: 1) Top Seeder 2 (Количество: 1) Mega Releaser 1 (Количество: 1)
Торрент-статистика

Создавать темы 10-Сен-2017 15:45

[Цитировать]

КоконCocoon«It is everything you've dreamed of. It is nothing you expect»- Страна: США
Жанр: фантастика, драма
Год выпуска: 1985
Продолжительность: 01:57:10
Перевод: Профессиональный (полное дублирование), Профессиональный (многоголосый, закадровый), 2 x Профессиональный (двухголосый, закадровый), Авторский
Субтитры: русские, английские.-Режиссер: Рон Ховард / Ron Howard-В ролях: Дон Амичи (Art Selwyn), Уилфорд Бримли (Ben Luckett), Хьюм Кронин (Joe Finley), Брайан Деннехи (Walter), Джек Гилфорд (Bernie Lefkowitz), Стив Гуттенберг (Jack Bonner), Морин Стейплтон (Mary Luckett), Джессика Тэнди (Alma Finley), Гвен Вердон (Bess McCarthy), Херта Уэр (Rose «Rosie» Lefkowitz)-Описание: Обитатели дома престарелых обнаруживают, что если искупаешься в близлежащем бассейне, то начинаешь чувствовать себя совсем молодцом. Но вдруг выясняется, что на дне бассейна хранится чудодейственный кокон, поднятый из глубин океана и принадлежащий инопланетянам, когда-то навестившим Землю, а теперь вернувшимся. Старички резко возжелали омолодиться и увязались в увлекательную, но небезопасную авантюру, которая сопряжена со множеством нарушений и шума.- -Семпл- -Качество: BDRip 1080p
Контейнер: MKV
Видео: AVC, 1918x1040 (1.85:1), 10200 Kbps, 23,976 fps, 0,213 bpp
Аудио №1: русский / AC3 / 2.0 / 48 kHz / 192 kbps / Дубляж (со вставками многолосого)
Аудио №2: русский / AC3 / 5.1 / 48 kHz / 640 kbps / MVO
Аудио №3: русский / AC3 / 2.0 / 48 kHz / 192 kbps / DVO ( НТВ )
Аудио №4: русский / AC3 / 2.0 / 48 kHz / 192 kbps / DVO ( Премьер Видео Фильм )
Аудио №5: русский / AC3 / 5.1 / 48 kHz / 640 kbps / AVO ( Гаврилов )
Аудио №6: английский / AC3 / 5.1 / 48 kHz / 640 kbps
Навигация по главам: есть-

Media Info

Формат : Matroska
Версия формата : Version 2
Размер файла : 10,4 Гбайт
Продолжительность : 1 ч. 57 м.
Общий поток : 12,7 Мбит/сек
Название фильма : = Кокон / Cocoon (1985) BDRip 1080p - KORSAR =
Дата кодирования : UTC 2017-09-04 21:31:43
Программа кодирования : mkvmerge v5.8.0 ('No Sleep / Pillow') built on Sep 2 2012 15:37:04
Библиотека кодирования : libebml v1.2.3 + libmatroska v1.3.0
Attachment : Yes
Видео
Идентификатор : 1
Формат : AVC
Формат/Информация : Advanced Video Codec
Профиль формата : High@L4.1
Параметр CABAC формата : Да
Параметр ReFrames формата : 4 кадра
Идентификатор кодека : V_MPEG4/ISO/AVC
Продолжительность : 1 ч. 57 м.
Битрейт : 10,2 Мбит/сек
Ширина : 1918 пикселей
Высота : 1040 пикселей
Соотношение сторон : 1,85:1
Режим частоты кадров : Постоянный
Частота кадров : 23,976 кадра/сек
Цветовое пространство : YUV
Субдискретизация насыщенности : 4:2:0
Битовая глубина : 8 бит
Тип развёртки : Прогрессивная
Бит/(Пиксели*Кадры) : 0.213
Размер потока : 8,14 Гбайт (78%)
Заголовок : Кокон / Cocoon (1985) BDRip 1080p - KORSAR
Библиотека кодирования : x264 core 148 r2744kMod b97ae06
Настройки программы : cabac=1 / ref=4 / deblock=1:-3:-3 / analyse=0x3:0x113 / me=umh / subme=11 / psy=1 / fade_compensate=0.00 / psy_rd=1.00:0.00 / mixed_ref=1 / me_range=32 / chroma_me=1 / trellis=2 / 8x8dct=1 / cqm=0 / deadzone=21,11 / fast_pskip=0 / chroma_qp_offset=-2 / threads=12 / lookahead_threads=3 / sliced_threads=0 / nr=0 / decimate=0 / interlaced=0 / bluray_compat=0 / constrained_intra=0 / bframes=10 / b_pyramid=2 / b_adapt=2 / b_bias=0 / direct=3 / weightb=1 / open_gop=0 / weightp=2 / keyint=240 / keyint_min=23 / scenecut=40 / intra_refresh=0 / rc_lookahead=60 / rc=2pass / mbtree=0 / bitrate=10200 / ratetol=1.0 / qcomp=0.60 / qpmin=0 / qpmax=69 / qpstep=4 / cplxblur=20.0 / qblur=0.5 / vbv_maxrate=50000 / vbv_bufsize=62500 / nal_hrd=none / filler=0 / ip_ratio=1.40 / pb_ratio=1.30 / aq=3:0.90
Язык : English
Default : Да
Forced : Нет
Основные цвета : BT.709
Характеристики трансфера : BT.709
Коэффициенты матрицы : BT.709
Аудио #1
Идентификатор : 2
Формат : AC-3
Формат/Информация : Audio Coding 3
Расширение режима : CM (complete main)
Параметр Endianness формата : Big
Идентификатор кодека : A_AC3
Продолжительность : 1 ч. 57 м.
Вид битрейта : Постоянный
Битрейт : 192 Кбит/сек
Каналы : 2 канала
Расположение каналов : Front: L R
Частота : 48,0 КГц
Битовая глубина : 16 бит
Метод сжатия : С потерями
Размер потока : 161 Мбайт (2%)
Заголовок : Дубляж (со вставками многолосого)
Язык : Russian
Default : Да
Forced : Нет
Аудио #2
Идентификатор : 3
Формат : AC-3
Формат/Информация : Audio Coding 3
Расширение режима : CM (complete main)
Параметр Endianness формата : Big
Идентификатор кодека : A_AC3
Продолжительность : 1 ч. 57 м.
Вид битрейта : Постоянный
Битрейт : 640 Кбит/сек
Каналы : 6 каналов
Расположение каналов : Front: L C R, Side: L R, LFE
Частота : 48,0 КГц
Битовая глубина : 16 бит
Метод сжатия : С потерями
Размер потока : 536 Мбайт (5%)
Заголовок : MVO
Язык : Russian
Default : Нет
Forced : Нет
Аудио #3
Идентификатор : 4
Формат : AC-3
Формат/Информация : Audio Coding 3
Расширение режима : CM (complete main)
Параметр Endianness формата : Big
Идентификатор кодека : A_AC3
Продолжительность : 1 ч. 57 м.
Вид битрейта : Постоянный
Битрейт : 192 Кбит/сек
Каналы : 2 канала
Расположение каналов : Front: L R
Частота : 48,0 КГц
Битовая глубина : 16 бит
Метод сжатия : С потерями
Размер потока : 161 Мбайт (2%)
Заголовок : DVO ( НТВ )
Язык : Russian
Default : Нет
Forced : Нет
Аудио #4
Идентификатор : 5
Формат : AC-3
Формат/Информация : Audio Coding 3
Расширение режима : CM (complete main)
Параметр Endianness формата : Big
Идентификатор кодека : A_AC3
Продолжительность : 1 ч. 57 м.
Вид битрейта : Постоянный
Битрейт : 192 Кбит/сек
Каналы : 2 канала
Расположение каналов : Front: L R
Частота : 48,0 КГц
Битовая глубина : 16 бит
Метод сжатия : С потерями
Размер потока : 161 Мбайт (2%)
Заголовок : DVO ( Премьер Видео Фильм )
Язык : Russian
Default : Нет
Forced : Нет
Аудио #5
Идентификатор : 6
Формат : AC-3
Формат/Информация : Audio Coding 3
Расширение режима : CM (complete main)
Параметр Endianness формата : Big
Идентификатор кодека : A_AC3
Продолжительность : 1 ч. 57 м.
Вид битрейта : Постоянный
Битрейт : 640 Кбит/сек
Каналы : 6 каналов
Расположение каналов : Front: L C R, Side: L R, LFE
Частота : 48,0 КГц
Битовая глубина : 16 бит
Метод сжатия : С потерями
Размер потока : 536 Мбайт (5%)
Заголовок : AVO ( Гаврилов )
Язык : Russian
Default : Нет
Forced : Нет
Аудио #6
Идентификатор : 7
Формат : AC-3
Формат/Информация : Audio Coding 3
Расширение режима : CM (complete main)
Параметр Endianness формата : Big
Идентификатор кодека : A_AC3
Продолжительность : 1 ч. 57 м.
Вид битрейта : Постоянный
Битрейт : 640 Кбит/сек
Каналы : 6 каналов
Расположение каналов : Front: L C R, Side: L R, LFE
Частота : 48,0 КГц
Битовая глубина : 16 бит
Метод сжатия : С потерями
Размер потока : 536 Мбайт (5%)
Язык : English
Default : Нет
Forced : Нет
Текст #1
Идентификатор : 8
Формат : UTF-8
Идентификатор кодека : S_TEXT/UTF8
Идентификатор кодека/Информация : UTF-8 Plain Text
Язык : Russian
Default : Нет
Forced : Нет
Текст #2
Идентификатор : 9
Формат : UTF-8
Идентификатор кодека : S_TEXT/UTF8
Идентификатор кодека/Информация : UTF-8 Plain Text
Язык : English
Default : Нет
Forced : Нет
Меню
00:00:00.000 : en:00:00:00.000
00:01:35.762 : en:00:01:35.762
00:08:40.478 : en:00:08:40.478
00:19:05.185 : en:00:19:05.185
00:22:26.094 : en:00:22:26.094
00:31:55.997 : en:00:31:55.997
00:35:59.073 : en:00:35:59.073
00:43:47.333 : en:00:43:47.333
00:55:28.992 : en:00:55:28.992
01:06:32.822 : en:01:06:32.822
01:14:47.900 : en:01:14:47.900
01:19:32.768 : en:01:19:32.768
01:25:35.547 : en:01:25:35.547
01:33:29.020 : en:01:33:29.020
01:45:13.724 : en:01:45:13.724
01:52:21.359 : en:01:52:21.359
-

Скриншоты


[Профиль] [ЛС]
Показать сообщения:    

Текущее время: Сегодня 20:32

Часовой пояс: GMT



Вы не можете начинать темы
Вы не можете отвечать на сообщения
Вы не можете редактировать свои сообщения
Вы не можете удалять свои сообщения
Вы не можете голосовать в опросах
Вы не можете прикреплять файлы к сообщениям
Вы не можете скачивать файлы