Козырные тузы / Smokin\' Aces (Джо Карнахан / Joe Carnahan) [2006 г., Великобритания, Франция, США, боевик, триллер, драма, криминал, BDRip] AVO (Гаврилов)

 
Автор Сообщение

TorrentFilm ®

Пол:

Стаж: 2 года

Сообщений: 7741



Награды: Нет

Торрент-статистика

Создавать темы 21-Июн-2015 00:08

[Цитировать]

Козырные тузы / Smokin' Aces Страна: Великобритания, Франция, США
Жанр: боевик, триллер, драма, криминал
Год выпуска: 2006
Продолжительность: 01:48:47
Перевод: Авторский (одноголосый закадровый) Андрей Гаврилов
Cубтитры: нет
Режиссер: Джо Карнахан / Joe Carnahan
В ролях: Райан Рейнольдс, Рэй Лиотта, Джозеф Рускин, Алекс Рокко, Вейн Ньютон, Джереми Пивен, Бен Аффлек, Питер Берг, Мартин Хендерсон
Описание: Бывший протеже гангстерского босса, успешный сценичный фокусник, решает выступить в суде со свидетельствами против своих бывших друзей. За его голову гангстерами назначена награда в 1 миллион долларов. ФБР всячески пытается укрыть его до суда, но он периодически упорно появляется на людях, привлекая, словно свет в ночи, десятки наемных убийц.

Качество видео: ВDRip
Формат видео: AVI
Видео кодек: XviD
Аудио кодек: AC3
Видео: 720x304 (2.37:1), 23.976 fps, XviD build 65 ~1524 kbps avg, 0.29 bit/pixel
Аудио: 48 kHz, AC3 Dolby Digital, 3/2 (L,C,R,l,r) + LFE ch, ~384 kbps

Доп.инфо

за видеоряд спасибо Юрист
за перевод Гаврилова спасибо dunhill200

MediaInfo

Полное имя : Козырные тузы.avi
Формат : AVI
Формат/Информация : Audio Video Interleave
Размер файла : 1,46 Гбайт
Продолжительность : 1 ч. 48 м.
Общий поток : 1918 Кбит/сек
Программа кодирования : VirtualDubMod 1.5.10.2 (build 2540/release)
Видео
Идентификатор : 0
Формат : MPEG-4 Visual
Профиль формата : Advanced Simple@L5
Параметр BVOP формата : 2
Параметр QPel формата : Нет
Параметр GMC формата : Без точки перехода
Параметр матрицы формата : Выборочная
Идентификатор кодека : XVID
Идентификатор кодека/Подсказка : XviD
Продолжительность : 1 ч. 48 м.
Битрейт : 1524 Кбит/сек
Ширина : 720 пикселей
Высота : 304 пикселя
Соотношение сторон : 2,35:1
Частота кадров : 23,976 кадра/сек
Цветовое пространство : YUV
Субдискретизация насыщенности : 4:2:0
Битовая глубина : 8 бит
Тип развёртки : Прогрессивная
Метод сжатия : С потерями
Бит/(Пиксели*Кадры) : 0.290
Размер потока : 1,16 Гбайт (79%)
Библиотека кодирования : XviD 65
Аудио
Идентификатор : 1
Формат : AC-3
Формат/Информация : Audio Coding 3
Расширение режима : CM (complete main)
Параметр Endianness формата : Big
Идентификатор кодека : 2000
Продолжительность : 1 ч. 48 м.
Вид битрейта : Постоянный
Битрейт : 384 Кбит/сек
Каналы : 6 каналов
Расположение каналов : Front: L C R, Side: L R, LFE
Частота : 48,0 КГц
Битовая глубина : 16 бит
Метод сжатия : С потерями
Размер потока : 299 Мбайт (20%)
Выравнивание : Разделение по промежуткам
Продолжительность промежутка : 42 мс. (1,00 видеокадр)
Время предзагрузки промежутка : 500 мс.

Скриншоты

[Профиль] [ЛС]

Создавать темы 06-Авг-2015 22:29 (спустя 1 месяц 15 дней)

Топик был перенесен из форума Фильмы до 2014 года в форум Фильмы до 2012 года
sergej644
 
Кто просматривает тему:

Форум Тема Автор Размер
Зарубежные сериалы Заточенные кепки / Острые козырьки / Peaky Blinders [S01-03] (2013-2016) BDRip 1080p HEVC | AlexFilm Russian Mafia 10.93 GB
Зарубежные сериалы Заточенные кепки / Острые козырьки / Peaky Blinders [S01] (2014) HDRip от Scarabey | LostFilm Белочка 5.65 GB
Зарубежные сериалы Заточенные кепки / Острые козырьки / Peaky Blinders [S02] (2014) BDRip 720p от qqss44 | LostFilm, AlexFilm, Кубик в Кубе Белочка 27.57 GB
Зарубежные сериалы Заточенные кепки / Острые козырьки / Peaky Blinders [S02] (2014) HDRip от qqss44 | LostFilm Белочка 4.31 GB
Зарубежные сериалы Заточенные кепки / Острые козырьки / Peaky Blinders [S02] (2014) HDRip от qqss44 | Кубик в Кубе Белочка 4.14 GB
Фильмы (HD Rips | 720p, 1080p) Козырные тузы / Smokin' Aces (2006) BDRip 1080p от MediaClub | D, A sergej644 13.48 GB
Фильмы 2011 года Козырные тузы / Smokin\' Aces (Джо Карнахан / Joe Carnahan) [2006 г., Триллер, криминал, боевик, BDRip-AVC] Dub + Original (eng) + AVO (Ю. Немахов) + sub (rus, eng, ukr, commentary) TorrentFilm 4.25 GB
Зарубежные сериалы Острые козырьки / Peaky Blinders [S03] (2016) WEBRip 720p | Jaskier достали все 6.1 GB
Показать сообщения:    

Текущее время: Сегодня 10:31

Часовой пояс: GMT



Вы не можете начинать темы
Вы не можете отвечать на сообщения
Вы не можете редактировать свои сообщения
Вы не можете удалять свои сообщения
Вы не можете голосовать в опросах
Вы не можете прикреплять файлы к сообщениям
Вы не можете скачивать файлы