Козырные тузы / Smokin' Aces (2006) BDRip 1080p от MediaClub | D, A

 
Автор Сообщение

sergej644 ®

Пол:

Стаж: 5 лет 7 месяцев

Сообщений: 6136

Откуда: Soviet Union



Награды: 9 (Подробнее)

Mega Seeder 1 (Количество: 1) Top Seeder 5 (Количество: 1) Top Seeder 2 (Количество: 1)
Торрент-статистика

Создавать темы 02-Мар-2015 17:34

[Цитировать]

Информация о фильме
Название: Козырные тузы
Оригинальное название: Smokin' Aces
Год выпуска: 2006
Жанр: Боевик, триллер, драма, криминал
Режиссер: Джо Карнахан
В ролях: Райан Рейнольдс, Рэй Лиотта, Джозеф Рускин, Алекс Рокко, Вейн Ньютон, Джереми Пивен, Бен Аффлек, Питер Берг, Мартин Хендерсон
Описание: Бывший протеже гангстерского босса, успешный сценичный комик, решает выступить в суде со свидетельствами против своих бывших друзей. За его голову гангстерами назначена награда в 1 миллион долларов. ФБР всячески пытается укрыть его до суда, но он периодически упорно появляется на людях, привлекая, словно свет в ночи, десятки наемных убийц.

Выпущено: США, Франция, Великобритания / Universal Pictures, Studio Canal, Relativity Media, Working Title Films, Scion Films
Продолжительность: 01:48:47
Перевод: Дублированный, авторский
Файл
Видео: MPEG-4 AVC, 12000 Кбит/с, 1920x816, 23.976 кадр/с
Аудио #1: Русский (DTS, 6 ch, 768 Кбит/с) / Дублированный
Аудио #2: Русский (DTS, 6 ch, 1509 Кбит/с) / Авторский одноголосый (Гаврилов)
Аудио #3: Русский (DTS, 6 ch, 1509 Кбит/с) / Авторский одноголосый (Немахов)
Аудио #4: Русский (АС3, 6 ch, 448 Кбит/с) / Авторский одноголосый (Яроцкий)
Аудио #5: Английский (DTS, 6 ch, 1509 Кбит/с)
Субтитры: Русские (форсированные, полные), украинские, английские
Семпл

Скриншоты

О релизе

Rip by kaspr
За исходник спасибо: HDTracker
За голос Гаврилова спасибо: dunhill200
За перевод Яроцкого спасибо: Переулок Переводмана
Внимение: в переводе Яроцкого присутствует ненормативная лексика

MI

x264 [info]: frame I:1057 Avg QP:16.97 size:213199
x264 [info]: frame P:41950 Avg QP:19.29 size: 90992
x264 [info]: frame B:113498 Avg QP:21.62 size: 50625
x264 [info]: consecutive B-frames: 6.2% 5.6% 5.5% 33.4% 8.0% 35.6% 1.7% 2.9% 0.3% 0.3% 0.3%
*******************************************************************************************************
Общее
Уникальный идентификатор : 223692689107316842097773438924652357776 (0xA849A513874053AD8FDF1DB142812890)
Полное имя : D:Mои раздачиKozyrnye.tuzy.2006.BDRip.1080p-MediaClub.mkv
Формат : Matroska
Версия формата : Version 4 / Version 2
Размер файла : 13,5 Гбайт
Продолжительность : 1 ч. 48 м.
Общий поток : 17,7 Мбит/сек
Название фильма : -=MediaClub-kaspr=-
Дата кодирования : UTC 2015-03-01 05:29:21
Программа кодирования : mkvmerge v6.9.1 ('Blue Panther') 64bit built on Apr 18 2014 18:23:38
Библиотека кодирования : libebml v1.3.0 + libmatroska v1.4.1
Видео
Идентификатор : 1
Формат : AVC
Формат/Информация : Advanced Video Codec
Профиль формата : High@L4.1
Параметр CABAC формата : Да
Параметр ReFrames формата : 5 кадров
Идентификатор кодека : V_MPEG4/ISO/AVC
Продолжительность : 1 ч. 48 м.
Битрейт : 12,0 Мбит/сек
Ширина : 1920 пикселей
Высота : 816 пикселей
Соотношение сторон : 2,35:1
Режим частоты кадров : Постоянный
Частота кадров : 23,976 кадра/сек
Цветовое пространство : YUV
Субдискретизация насыщенности : 4:2:0
Битовая глубина : 8 бит
Тип развёртки : Прогрессивная
Бит/(Пиксели*Кадры) : 0.319
Размер потока : 8,85 Гбайт (66%)
Заголовок : -=MediaClub-kaspr=-
Библиотека кодирования : x264 core 142 r2431+42 c69a006 tMod [8-bit@all X86_64]
Настройки программы : cabac=1 / ref=5 / deblock=1:-3:-3 / analyse=0x3:0x113 / me=umh / subme=11 / psy=1 / fade_compensate=0.00 / psy_rd=1.00:0.20 / mixed_ref=1 / me_range=32 / chroma_me=1 / trellis=2 / 8x8dct=1 / cqm=0 / deadzone=21,11 / fast_pskip=0 / chroma_qp_offset=-3 / threads=12 / lookahead_threads=3 / sliced_threads=0 / nr=0 / decimate=0 / interlaced=0 / bluray_compat=0 / constrained_intra=0 / fgo=0 / bframes=10 / b_pyramid=2 / b_adapt=2 / b_bias=0 / direct=3 / weightb=1 / open_gop=0 / weightp=2 / keyint=240 / keyint_min=23 / scenecut=40 / intra_refresh=0 / rc=2pass / mbtree=0 / bitrate=12000 / ratetol=1.0 / qcomp=0.60 / qpmin=0:0:0 / qpmax=69:69:69 / qpstep=4 / cplxblur=20.0 / qblur=0.5 / ip_ratio=1.40 / pb_ratio=1.30 / aq=4:0.80 / aq-sensitivity=10.00 / aq-factor=1.00:1.00:1.00 / aq2=0 / aq3=0
Default : Да
Forced : Нет
Аудио #1
Идентификатор : 2
Формат : DTS
Формат/Информация : Digital Theater Systems
Режим : 16
Параметр Endianness формата : Big
Идентификатор кодека : A_DTS
Продолжительность : 1 ч. 48 м.
Вид битрейта : Постоянный
Битрейт : 768 Кбит/сек
Каналы : 6 каналов
Расположение каналов : Front: L C R, Side: L R, LFE
Частота : 48,0 КГц
Битовая глубина : 24 бит
Метод сжатия : С потерями
Размер потока : 598 Мбайт (4%)
Заголовок : Dub
Язык : Russian
Default : Да
Forced : Нет
Аудио #2
Идентификатор : 3
Формат : DTS
Формат/Информация : Digital Theater Systems
Режим : 16
Параметр Endianness формата : Big
Идентификатор кодека : A_DTS
Продолжительность : 1 ч. 48 м.
Вид битрейта : Постоянный
Битрейт : 1509 Кбит/сек
Каналы : 6 каналов
Расположение каналов : Front: L C R, Side: L R, LFE
Частота : 48,0 КГц
Битовая глубина : 24 бит
Метод сжатия : С потерями
Размер потока : 1,15 Гбайт (9%)
Заголовок : Гаврилов
Язык : Russian
Default : Нет
Forced : Нет
Аудио #3
Идентификатор : 4
Формат : DTS
Формат/Информация : Digital Theater Systems
Режим : 16
Параметр Endianness формата : Big
Идентификатор кодека : A_DTS
Продолжительность : 1 ч. 48 м.
Вид битрейта : Постоянный
Битрейт : 1509 Кбит/сек
Каналы : 6 каналов
Расположение каналов : Front: L C R, Side: L R, LFE
Частота : 48,0 КГц
Битовая глубина : 24 бит
Метод сжатия : С потерями
Размер потока : 1,15 Гбайт (9%)
Заголовок : Немахов
Язык : Russian
Default : Нет
Forced : Нет
Аудио #4
Идентификатор : 5
Формат : AC-3
Формат/Информация : Audio Coding 3
Расширение режима : CM (complete main)
Параметр Endianness формата : Big
Идентификатор кодека : A_AC3
Продолжительность : 1 ч. 48 м.
Вид битрейта : Постоянный
Битрейт : 448 Кбит/сек
Каналы : 6 каналов
Расположение каналов : Front: L C R, Side: L R, LFE
Частота : 48,0 КГц
Битовая глубина : 16 бит
Метод сжатия : С потерями
Размер потока : 349 Мбайт (3%)
Заголовок : Яроцкий
Язык : Russian
Default : Нет
Forced : Нет
Аудио #5
Идентификатор : 6
Формат : DTS
Формат/Информация : Digital Theater Systems
Режим : 16
Параметр Endianness формата : Big
Идентификатор кодека : A_DTS
Продолжительность : 1 ч. 48 м.
Вид битрейта : Постоянный
Битрейт : 1509 Кбит/сек
Каналы : 6 каналов
Расположение каналов : Front: L C R, Side: L R, LFE
Частота : 48,0 КГц
Битовая глубина : 24 бит
Метод сжатия : С потерями
Размер потока : 1,15 Гбайт (9%)
Язык : English
Default : Нет
Forced : Нет
Текст #1
Идентификатор : 7
Формат : UTF-8
Идентификатор кодека : S_TEXT/UTF8
Идентификатор кодека/Информация : UTF-8 Plain Text
Заголовок : Forced
Язык : Russian
Default : Да
Forced : Нет
Текст #2
Идентификатор : 8
Формат : UTF-8
Идентификатор кодека : S_TEXT/UTF8
Идентификатор кодека/Информация : UTF-8 Plain Text
Заголовок : Full
Язык : Russian
Default : Нет
Forced : Нет
Текст #3
Идентификатор : 9
Формат : UTF-8
Идентификатор кодека : S_TEXT/UTF8
Идентификатор кодека/Информация : UTF-8 Plain Text
Заголовок : Full
Язык : Ukrainian
Default : Нет
Forced : Нет
Текст #4
Идентификатор : 10
Формат : UTF-8
Идентификатор кодека : S_TEXT/UTF8
Идентификатор кодека/Информация : UTF-8 Plain Text
Заголовок : Full
Язык : English
Default : Нет
Forced : Нет
Меню
00:00:00.000 : en:1. Most Wanted
00:05:43.301 : en:2. Showman of the Year
00:11:14.799 : en:3. Meet the Players
00:18:20.182 : en:4. What's The Plan?
00:25:49.547 : en:5. Under Negotiation
00:30:19.776 : en:6. Wrong Place, Wrong Time
00:35:39.137 : en:7. Checkmate
00:40:19.250 : en:8. Mama's Got Your Back
00:48:22.608 : en:9. Loyal and Devout
00:55:46.134 : en:10. Recovered
00:59:58.845 : en:11. Elevator Exchange
01:04:17.937 : en:12. The Last Chip
01:10:15.878 : en:13. Deal Revoked
01:14:52.362 : en:14. Bring It!
01:22:16.765 : en:15. Accounted For
01:24:53.630 : en:16. The Aftermath
01:28:15.622 : en:17. Beat Out
01:31:14.677 : en:18. Betrayed
01:39:25.584 : en:19. Pulling the Plug
01:42:18.006 : en:20. End Titles
[Профиль] [ЛС]
Кто просматривает тему:

Форум Тема Автор Размер
Зарубежные сериалы Заточенные кепки / Острые козырьки / Peaky Blinders [S01-03] (2013-2016) BDRip 1080p HEVC | AlexFilm Russian Mafia 10.93 GB
Зарубежные сериалы Заточенные кепки / Острые козырьки / Peaky Blinders [S01] (2014) HDRip от Scarabey | LostFilm Белочка 5.65 GB
Зарубежные сериалы Заточенные кепки / Острые козырьки / Peaky Blinders [S02] (2014) BDRip 720p от qqss44 | LostFilm, AlexFilm, Кубик в Кубе Белочка 27.57 GB
Зарубежные сериалы Заточенные кепки / Острые козырьки / Peaky Blinders [S02] (2014) HDRip от qqss44 | LostFilm Белочка 4.31 GB
Зарубежные сериалы Заточенные кепки / Острые козырьки / Peaky Blinders [S02] (2014) HDRip от qqss44 | Кубик в Кубе Белочка 4.14 GB
Фильмы 2011 года Козырные тузы / Smokin\' Aces (Джо Карнахан / Joe Carnahan) [2006 г., Великобритания, Франция, США, боевик, триллер, драма, криминал, BDRip] AVO (Гаврилов) TorrentFilm 1.46 GB
Фильмы 2011 года Козырные тузы / Smokin\' Aces (Джо Карнахан / Joe Carnahan) [2006 г., Триллер, криминал, боевик, BDRip-AVC] Dub + Original (eng) + AVO (Ю. Немахов) + sub (rus, eng, ukr, commentary) TorrentFilm 4.25 GB
Зарубежные сериалы Острые козырьки / Peaky Blinders [S03] (2016) WEBRip 720p | Jaskier достали все 6.1 GB
Показать сообщения:    

Текущее время: Сегодня 02:04

Часовой пояс: GMT



Вы не можете начинать темы
Вы не можете отвечать на сообщения
Вы не можете редактировать свои сообщения
Вы не можете удалять свои сообщения
Вы не можете голосовать в опросах
Вы не можете прикреплять файлы к сообщениям
Вы не можете скачивать файлы