Кое-что задаром (2016) WEBRip 1080p | Трейлер

 
Автор Сообщение

достали все ®

Пол:

Стаж: 1 год 8 месяцев

Сообщений: 6577



Награды: 12 (Подробнее)

За внесенный вклад в развитие сайта (Количество: 1) Top Releaser 4 (Количество: 1) Mega Seeder 3 (Количество: 1)
Торрент-статистика

Создавать темы 27-Май-2015 09:39

[Цитировать]

[/url]Год выпуска: 2016
Производство: Россия
Жанр: Триллер, фантастика
Режиссер: Алексей Талызин
Продюсеры: Алексей Талызин, Алексей Эрберг
Актеры: Максим Пономарёв, Александр Удалов
Описание фильма:
Сюжет картины строится вокруг финансиста Макса — ему в руки попадает прибор, который может материализовывать желаемое, в том числе деньги. И подобный «подарок» судьбы застаёт Макса в трудный период его жизни. Его намеренно подставляют и увольняют с работы, а единственный близкий и дорогой ему человек — младшая сестра, борется за жизнь с тяжёлой болезнью, на лечение которой требуется большая сумма денег. Казалось бы, подобный прибор может только помочь Максу. Но за ним начинает охотиться некий Агент, угрожая уже его жизни.
Дата мировой премьеры: 2016

Продолжительность: 00:01:58
Качество видео: WEBRip
Видеокодек: MPEG-4 AVC/H.264
Битрейт видео: 2600 Кбит/сек
Размер кадра: 1920x1080
Аудиокодек: AC3 2.0
Битрейт аудио: 254 Кбит/сек

MediaInfo:

Общее
Полное имя : Кое-что задаром Русский Тизер-Трейлер (2016).mp4
Формат : MPEG-4
Профиль формата : Base Media
Идентификатор кодека : isom
Размер файла : 40,4 Мбайт
Продолжительность : 1 м. 58 с.
Общий поток : 2857 Кбит/сек
Программа кодирования : Lavf56.19.100
Видео
Идентификатор : 1
Формат : AVC
Формат/Информация : Advanced Video Codec
Профиль формата : High@L4
Параметр CABAC формата : Да
Параметр ReFrames формата : 2 кадра
Идентификатор кодека : avc1
Идентификатор кодека/Информация : Advanced Video Coding
Продолжительность : 1 м. 58 с.
Битрейт : 2600 Кбит/сек
Ширина : 1920 пикселей
Высота : 1080 пикселей
Соотношение сторон : 16:9
Режим частоты кадров : Постоянный
Частота кадров : 25,000 кадров/сек
Цветовое пространство : YUV
Субдискретизация насыщенности : 4:2:0
Битовая глубина : 8 бит
Тип развёртки : Прогрессивная
Бит/(Пиксели*Кадры) : 0.050
Размер потока : 36,7 Мбайт (91%)
Аудио
Идентификатор : 2
Формат : AAC
Формат/Информация : Advanced Audio Codec
Профиль формата : LC
Идентификатор кодека : 40
Продолжительность : 1 м. 58 с.
Вид битрейта : Постоянный
Битрейт : 254 Кбит/сек
Каналы : 2 канала
Расположение каналов : Front: L R
Частота : 44,1 КГц
Метод сжатия : С потерями
Размер потока : 3,58 Мбайт (9%)
Скриншоты- -

Скриншоты

[Профиль] [ЛС]
Кто просматривает тему:

Показать сообщения:    

Текущее время: Сегодня 06:12

Часовой пояс: GMT



Вы не можете начинать темы
Вы не можете отвечать на сообщения
Вы не можете редактировать свои сообщения
Вы не можете удалять свои сообщения
Вы не можете голосовать в опросах
Вы не можете прикреплять файлы к сообщениям
Вы не можете скачивать файлы