Код убийцы / Code of a Killer [S01] (2015) WEB-DL 720p | AlexFilm

 
Автор Сообщение

достали все ®

Пол:

Стаж: 1 год 8 месяцев

Сообщений: 6571



Награды: 12 (Подробнее)

Mega Releaser 3 (Количество: 1) Mega Seeder 5 (Количество: 1) Top Releaser 3 (Количество: 1)
Торрент-статистика

Создавать темы 10-Июл-2015 17:51

[Цитировать]

---***** Код убийцы / Code of a Killer *****-- * Информация о фильме: *
* Название: Код убийцы
* Оригинальное название: Code of a Killer
* Год выхода: 2015
* Жанр: драма, криминал, детектив, биография
* Режиссер: Джеймс Стронг
* В ролях: * Дороти Эткинсон, Даррен Бэнкрофт, Лидия Роуз Бьюли, Пол Копли, Лоркан Кранич, Джаз Деол, Ширли Диксон, Нил Эдмонд, Фарзана Дуа Элахе, Роберт Гленистер
* Описание фильма: * Сериал расскажет об открытии ДНК-дактилоскопии Алеком Джеффрисом, что помогло инспектору Дэвиду Бейкеру привлечь к ответу виновного в двойном убийстве. Основан на реальных событиях.

* Страна: Великобритания
* Продолжительность: 2 х ~65 мин
* Перевод: Профессиональный (многоголосый, закадровый) - [AlexFilm]

* Информация о файле: *
* Кодек: AVC
* Формат: MKV
* Качество: WEB-DL 720p (Amazon)
* Видео: 1280x720 (16:9), 25 fps, MPEG-4 AVC ~6000 kbps avg, 0.26 bit/pixel
* Аудио RU: 48 kHz, AC3 Dolby Digital, 2.0 ch, 192.00 kbps
* Аудио EN: 48 kHz, AC3 Dolby Digital, 2.0 ch, 192.00 kbps
* Субтитры: нет

* Скриншоты *

MediaInfo

Format : Matroska
Format version : Version 4 / Version 2
File size : 2.85 GiB
Duration : 1h 5mn
Overall bit rate mode : Constant
Overall bit rate : 6 261 Kbps
Movie name : Code of a Killer E01 @ AlexFilm
Encoded date : UTC 2015-07-09 21:11:22
Writing application : mkvmerge v6.6.0 ('The Edge Of The In Between') built on Dec 1 2013 17:55:00
Writing library : libebml v1.3.0 + libmatroska v1.4.1
Video
ID : 1
Format : AVC
Format/Info : Advanced Video Codec
Format profile : High@L3.1
Format settings, CABAC : Yes
Format settings, ReFrames : 4 frames
Format settings, GOP : M=4, N=50
Codec ID : V_MPEG4/ISO/AVC
Duration : 1h 5mn
Bit rate mode : Constant
Bit rate : 6 000 Kbps
Width : 1 280 pixels
Height : 720 pixels
Display aspect ratio : 16:9
Frame rate mode : Constant
Frame rate : 25.000 fps
Standard : PAL
Color space : YUV
Chroma subsampling : 4:2:0
Bit depth : 8 bits
Scan type : Progressive
Bits/(Pixel*Frame) : 0.260
Stream size : 2.62 GiB (92%)
Language : English
Default : Yes
Forced : No
Color range : Limited
Color primaries : BT.709
Transfer characteristics : BT.709
Matrix coefficients : BT.709
Audio #1
ID : 2
Format : AC-3
Format/Info : Audio Coding 3
Mode extension : CM (complete main)
Format settings, Endianness : Big
Codec ID : A_AC3
Duration : 1h 5mn
Bit rate mode : Constant
Bit rate : 192 Kbps
Channel(s) : 2 channels
Channel positions : Front: L R
Sampling rate : 48.0 KHz
Bit depth : 16 bits
Compression mode : Lossy
Stream size : 89.4 MiB (3%)
Title : DD2.0 AlexFilm
Language : Russian
Default : Yes
Forced : No
Audio #2
ID : 3
Format : AC-3
Format/Info : Audio Coding 3
Mode extension : CM (complete main)
Format settings, Endianness : Big
Codec ID : A_AC3
Duration : 1h 5mn
Bit rate mode : Constant
Bit rate : 192 Kbps
Channel(s) : 2 channels
Channel positions : Front: L R
Sampling rate : 48.0 KHz
Bit depth : 16 bits
Compression mode : Lossy
Stream size : 89.4 MiB (3%)
Title : DD2.0 Original
Language : English
Default : No
Forced : No

* Раздача ведется путем добавления новых серий *

Когда раздача ведётся путём добавления новых серий, при каждом добавлении создётся новый торрент. Чтобы начать докачку новой серии, пользователям необходимо сделать следующее:
(1) остановить скачивание,
(2) удалить старый торрент у себя из клиента (старые серии удалять не надо),
(3) скачать новый торрент и запустить его у себя в клиенте вместо старого, при этом указать клиенту путь в старую папку, куда и должно происходить скачивание новых серий.
Ваш клиент при этом должен произвести хеширование (проверку) старой папки (если не производит сам - помогите ему сделать это), и будет докачивать только те серии, которых у вас ещё нет. Старые серии при этом не удаляются, а продолжают раздаваться!
Eсли вы уже удалили старые серии, то предотвратить повторную закачку старых серий можно, отжав галочку в соответсвующих местах при запуске нового торрента. По возможности, желательно не удалять старые серии как можно дольше, чтобы релизёр не столько продолжал раздавать старые серии, а смог сконцентрироваться на новых.
[Профиль] [ЛС]
Кто просматривает тему:

Показать сообщения:    

Текущее время: Сегодня 00:34

Часовой пояс: GMT



Вы не можете начинать темы
Вы не можете отвечать на сообщения
Вы не можете редактировать свои сообщения
Вы не можете удалять свои сообщения
Вы не можете голосовать в опросах
Вы не можете прикреплять файлы к сообщениям
Вы не можете скачивать файлы