Код Да Винчи / The Da Vinci Code (2006) BDRip 1080p от HDReactor | Theatrical Cut / 10th Anniversary Remastered Edition | Лицензия

 
Автор Сообщение

Russian Mafia ®

Пол:

Стаж: 1 год 8 месяцев

Сообщений: 4253



Награды: 10 (Подробнее)

Top Releaser 4 (Количество: 1) Top Releaser 5 (Количество: 1) Mega Seeder 4 (Количество: 1)
Торрент-статистика

Создавать темы 06-Окт-2016 05:24

[Цитировать]

Информация о фильме
Название: Код Да Винчи
Оригинальное название: The Da Vinci Code
Год выпуска: 2006
Жанр: Триллер, драма, детектив, мистика, экранизация
Выпущено: США, Мальта, Франция, Великобритания, Columbia Pictures, Imagine Entertainment, Skylark Productions
Режиссер: Рон Ховард
В ролях: Жан Рено, Одри Тоту, Том Хэнкс, Пол Беттани, Иэн Маккеллен, Альфред Молина, Юрген Прохнов, Жан-Ив Бертело, Этьен Шико, Жан-Пьер Марьель, Рита Дейвис, Франческо Карнелутти, Сет Гейбл, Фаусто Мария Шиараппа, Джо Гросси, Дэнис Подалидес, Гарри Тэйлор, Дэйзи Дойдж-Хилл, Тонио Десканвей, Дэвид Барк-Джоунс, Дэвид Саракино, Ив Обер, Дез Даммонд, Хью Митчелл, Тина Мэскелл, Мари-Франсуа Одоллент, Питер Педреро, Агата Натансон, Энди Робб, Шэйн Заза, Кристофер Фош, Эндрю Кларк, Арно Клейн, Даффер Лабидин, Майкл Нортон, Норман Кэмпбелл Риис, Клив Картер, Мэттью Батлер
О фильме: В Лувре находят испещренный знаками труп некоего Жака Соньера. На место происшествия прибывают специалист по религиозным символам, профессор Роберт Лэнгдон, комиссар полиции Фаш и сотрудница местного шифровального отдела Софи Неве. Тут выясняется, что подозрение уже пало на Лэнгдона, и тот бросается в бегство вместе с Софи, оказавшейся внучкой убитого. С помощью предусмотрительно оставленных дедом ключей девушка находит устройство под названием криптекс, в котором спрятана тайна Священного Грааля и за которым охотится монах Сайлас, посланник Совета Теней. Цель Совета - уничтожить всех потомков Иисуса Христа. Экранизация по роману Дэна Брауна.

Продолжительность: 02:28:46
Перевод: Дублированный (Лицензия CEE)
Субтитры: Русские, английские
Файл
Качество: BDRip (1080p)
Видео: MPEG-4 AVC, 10.1 Mбит/с, 1920x802, 23.976 кадр/с
Аудио #1: Русский (АС3, 6 ch, 640 Кбит/с)
Аудио #2: Английский (АС3, 6 ch, 448 Кбит/с)

МедиаИнфо

Формат : Matroska
Версия формата : Version 2
Размер файла : 11,6 Гбайт
Продолжительность : 2 ч. 28 м.
Общий поток : 11,2 Мбит/сек
Название фильма : ~V ad~
Дата кодирования : UTC 2016-10-05 19:12:19
Программа кодирования : mkvmerge v6.5.0 ('Isn't she lovely') built on Oct 20 2013 12:50:05
Библиотека кодирования : libebml v1.3.0 + libmatroska v1.4.1
Обложка : Yes
Attachments : cover.jpg
Видео
Идентификатор : 1
Формат : AVC
Формат/Информация : Advanced Video Codec
Профиль формата : High@L4.1
Параметр CABAC формата : Да
Параметр ReFrames формата : 5 кадров
Идентификатор кодека : V_MPEG4/ISO/AVC
Продолжительность : 2 ч. 28 м.
Битрейт : 10,1 Мбит/сек
Ширина : 1920 пикселей
Высота : 802 пикселя
Соотношение сторон : 2,40:1
Режим частоты кадров : Постоянный
Частота кадров : 23,976 (24000/1001) кадра/сек
Цветовое пространство : YUV
Субдискретизация насыщенности : 4:2:0
Битовая глубина : 8 бит
Тип развёртки : Прогрессивная
Бит/(Пиксели*Кадры) : 0.274
Размер потока : 10,3 Гбайт (88%)
Заголовок : ~V~
Библиотека кодирования : x264 core 148 r2705 3f5ed56
Настройки программы : cabac=1 / ref=5 / deblock=1:-3:-3 / analyse=0x3:0x133 / me=umh / subme=11 / psy=1 / psy_rd=1.00:0.00 / mixed_ref=1 / me_range=32 / chroma_me=1 / trellis=2 / 8x8dct=1 / cqm=0 / deadzone=21,11 / fast_pskip=0 / chroma_qp_offset=-2 / threads=12 / lookahead_threads=1 / sliced_threads=0 / nr=0 / decimate=0 / interlaced=0 / bluray_compat=0 / constrained_intra=0 / bframes=12 / b_pyramid=2 / b_adapt=2 / b_bias=0 / direct=2 / weightb=1 / open_gop=0 / weightp=2 / keyint=240 / keyint_min=23 / scenecut=40 / intra_refresh=0 / rc=2pass / mbtree=0 / bitrate=10120 / ratetol=1.0 / qcomp=0.60 / qpmin=0 / qpmax=69 / qpstep=4 / cplxblur=20.0 / qblur=0.5 / ip_ratio=1.30 / pb_ratio=1.30 / aq=3:0.80
Язык : English
Default : Да
Forced : Нет
Аудио #1
Идентификатор : 2
Формат : AC-3
Формат/Информация : Audio Coding 3
Расширение режима : CM (complete main)
Параметр Endianness формата : Big
Идентификатор кодека : A_AC3
Продолжительность : 2 ч. 28 м.
Вид битрейта : Постоянный
Битрейт : 640 Кбит/сек
Каналы : 6 каналов
Расположение каналов : Front: L C R, Side: L R, LFE
Частота : 48,0 КГц
Частота кадров : 31,250 кадров/сек (1536 spf)
Метод сжатия : С потерями
Размер потока : 681 Мбайт (6%)
Заголовок : Dub
Язык : Russian
Default : Да
Forced : Да
Аудио #2
Идентификатор : 3
Формат : AC-3
Формат/Информация : Audio Coding 3
Расширение режима : CM (complete main)
Параметр Endianness формата : Big
Идентификатор кодека : A_AC3
Продолжительность : 2 ч. 28 м.
Вид битрейта : Постоянный
Битрейт : 448 Кбит/сек
Каналы : 6 каналов
Расположение каналов : Front: L C R, Side: L R, LFE
Частота : 48,0 КГц
Частота кадров : 31,250 кадров/сек (1536 spf)
Метод сжатия : С потерями
Размер потока : 477 Мбайт (4%)
Язык : English
Default : Нет
Forced : Нет
Текст #1
Идентификатор : 4
Формат : UTF-8
Идентификатор кодека : S_TEXT/UTF8
Идентификатор кодека/Информация : UTF-8 Plain Text
Язык : Russian
Default : Нет
Forced : Нет
Текст #2
Идентификатор : 5
Формат : UTF-8
Идентификатор кодека : S_TEXT/UTF8
Идентификатор кодека/Информация : UTF-8 Plain Text
Заголовок : Full
Язык : English
Default : Нет
Forced : Нет
Текст #3
Идентификатор : 6
Формат : UTF-8
Идентификатор кодека : S_TEXT/UTF8
Идентификатор кодека/Информация : UTF-8 Plain Text
Заголовок : SDH
Язык : English
Default : Нет
Forced : Нет
Текст #4
Идентификатор : 7
Формат : UTF-8
Идентификатор кодека : S_TEXT/UTF8
Идентификатор кодека/Информация : UTF-8 Plain Text
Заголовок : commentary
Язык : English
Default : Да
Forced : Нет
Меню
00:00:00.000 : en:Chapter 1
00:12:54.774 : en:Chapter 2
00:28:56.359 : en:Chapter 3
00:39:59.855 : en:Chapter 4
00:41:40.873 : en:Chapter 5
00:48:21.607 : en:Chapter 6
01:04:42.879 : en:Chapter 7
01:13:04.380 : en:Chapter 8
01:24:31.357 : en:Chapter 9
01:29:25.360 : en:Chapter 10
01:36:27.072 : en:Chapter 11
01:41:42.096 : en:Chapter 12
01:51:43.363 : en:Chapter 13
02:00:03.988 : en:Chapter 14
02:11:26.420 : en:Chapter 15
02:17:03.590 : en:Chapter 16

х264

x264 [info]: frame I:1304 Avg QP:15.95 size:167615
x264 [info]: frame P:40257 Avg QP:18.08 size: 91195
x264 [info]: frame B:172447 Avg QP:20.65 size: 42891

Скриншоты


Сэмпл
Релиз от:
[Профиль] [ЛС]
Кто просматривает тему:

Показать сообщения:    

Текущее время: Сегодня 03:12

Часовой пояс: GMT



Вы не можете начинать темы
Вы не можете отвечать на сообщения
Вы не можете редактировать свои сообщения
Вы не можете удалять свои сообщения
Вы не можете голосовать в опросах
Вы не можете прикреплять файлы к сообщениям
Вы не можете скачивать файлы