Код Да Винчи / The Da Vinci Code (Рон Ховард / Ron Howard) [2006, США, Мальта, Франция, Великобритания, триллер, детектив, DVDRip] [Театральная версия] [Fullscreen] Dub

 
Автор Сообщение

TorrentFilm ®

Пол:

Стаж: 1 год 11 месяцев

Сообщений: 7741



Награды: Нет

Торрент-статистика

Создавать темы 03-Мар-2016 00:08

[Цитировать]

Код Да ВинчиThe Da Vinci Code- Страна: США, Мальта, Франция, Великобритания
Жанр: триллер, детектив
Год выпуска: 2006
Продолжительность: 02:22:38-Перевод: Профессиональный (полное дублирование)
Оригинальная дорога: нет
Режиссер: Рон Ховард / Ron Howard
В ролях: Том Хэнкс (Robert Langdon), Одри Тоту (Sophie Neveu), Иэн МакКеллен (Sir Leigh Teabing), Жан Рено (Captain Bezu Fache), Пол Беттани (Silas), Альфред Молина (Bishop Manuel Aringarosa), Юрген Прохнов (Andre Vernet), Жан-Ив Бертело (Remy Jean), Этьен Шико (Lt. Collet), Жан-Пьер Марьель (Jacques Saunière), Мари-Франсуа Одоллент (Sister Sandrine), Рита Дейвис (Elegant Woman at Rosslyn)-Описание: Гарвардского профессора Роберта Лэнгдона подозревают в чудовищном преступлении, которого он не совершал. Лэнгдон знакомится с криптографом парижской полиции Софи Невё и вместе с ней пытается раскрыть тайну, которая может подорвать могущество католической церкви.
Роберт и Софи должны это сделать до того, как их схватят блюстители закона или остановят противники, готовые на все ради сохранения великого религиозного секрета…-
MPAA: PG-13 - Детям до 13 лет просмотр не желателен-На латинскую речь сделаны вставки MVO с Blu-Ray CEE.
На неанглийскую речь присутствуют вшитые английские субтиры (в исходнике).-Качество: DVDRip
Контейнер: AVI
Видео: 704x528 (1.33:1), 25 fps, XviD build 65 ~1737 kbps avg, 0.19 bit/pixel
Аудио: 48 kHz, AC3 Dolby Digital, 3/2 (L,C,R,l,r) + LFE ch, ~448.00 kbps avg-СЭМПЛ - https://yadi.sk/i/aFtHC_vKppiZP-

Сравнение с Widescreen



Скриншоты

MediaInfo

General
Complete name : E:\Movies\Da.Vinci.Code.2006.TC.FS.DVDRip.Dub.avi
Format : AVI
Format/Info : Audio Video Interleave
Format profile : OpenDML
File size : 2.18 GiB
Duration : 2h 22mn
Overall bit rate : 2 192 Kbps
Writing application : VirtualDubMod 1.5.10.2 (build 2542/release)
Writing library : VirtualDubMod build 2542/release
Video
ID : 0
Format : MPEG-4 Visual
Format profile : Advanced Simple@L5
Format settings, BVOP : 1
Format settings, QPel : No
Format settings, GMC : No warppoints
Format settings, Matrix : Custom
Codec ID : XVID
Codec ID/Hint : XviD
Duration : 2h 22mn
Bit rate : 1 732 Kbps
Width : 704 pixels
Height : 528 pixels
Display aspect ratio : 4:3
Frame rate : 25.000 fps
Color space : YUV
Chroma subsampling : 4:2:0
Bit depth : 8 bits
Scan type : Progressive
Compression mode : Lossy
Bits/(Pixel*Frame) : 0.186
Stream size : 1.73 GiB (79%)
Writing library : XviD 65
Audio
ID : 1
Format : AC-3
Format/Info : Audio Coding 3
Mode extension : CM (complete main)
Format settings, Endianness : Big
Codec ID : 2000
Duration : 2h 22mn
Bit rate mode : Constant
Bit rate : 448 Kbps
Channel(s) : 6 channels
Channel positions : Front: L C R, Side: L R, LFE
Sampling rate : 48.0 KHz
Compression mode : Lossy
Stream size : 457 MiB (20%)
Alignment : Split accross interleaves
Interleave, duration : 40 ms (1.00 video frame)
Interleave, preload duration : 500 ms
[Профиль] [ЛС]
Кто просматривает тему:

Показать сообщения:    

Текущее время: Сегодня 04:58

Часовой пояс: GMT



Вы не можете начинать темы
Вы не можете отвечать на сообщения
Вы не можете редактировать свои сообщения
Вы не можете удалять свои сообщения
Вы не можете голосовать в опросах
Вы не можете прикреплять файлы к сообщениям
Вы не можете скачивать файлы