Код Да Винчи / The Da Vinci Code (2006) BDRip 1080p | Расширенная версия / Extended Cut

 
Автор Сообщение

Russian Mafia ®

Пол:

Стаж: 1 год 8 месяцев

Сообщений: 4256



Награды: 10 (Подробнее)

Top Releaser 3 (Количество: 1) Top Releaser 5 (Количество: 1) Top Releaser 2 (Количество: 1)
Торрент-статистика

Создавать темы 08-Сен-2015 10:46

[Цитировать]

Информация о фильме
Название: Код Да Винчи
Оригинальное название: The Da Vinci Code
Год выхода: 2006
Жанр: триллер, детектив
Режиссер: Рон Ховард / Ron Howard
В ролях: Том Хэнкс, Одри Тоту, Иэн МакКеллен, Жан Рено, Пол Беттани, Альфред Молина, Юрген Прохнов, Жан-Ив Бертело, Этьен Шико, Жан-Пьер Марьель
О фильме:
Гарвардского профессора Роберта Лэнгдона подозревают в чудовищном преступлении, которого он не совершал. Лэнгдон знакомится с криптографом парижской полиции Софи Невё и вместе с ней пытается раскрыть тайну, которая может подорвать могущество католической церкви.
Роберт и Софи должны это сделать до того, как их схватят блюстители закона или остановят противники, готовые на все ради сохранения великого религиозного секрета…

Выпущено: США
Продолжительность: 02:54:37
Перевод: Профессиональный (многоголосый, закадровый)
Файл
Кодек: H264
Качество: BDRip 1080p
Видео: 1920x800, 5884 Kbps, 23.976 fps
Звук: 48 kHz, AC3, 6c, 640 kbps
Cубтитры: русские, английские

Скриншоты

MI

General
Unique ID : 192318304963348970133477605385902155957 (0x90AF28824DA6FBD4A8BE07607EB6E8B5)
Complete name : Код да Винчи.2006.BDRip.1080p.MVO.mkv
Format : Matroska
Format version : Version 2
File size : 7.94 GiB
Duration : 2h 54mn
Overall bit rate : 6 513 Kbps
Movie name : Код да Винчи.2006
Encoded date : UTC 2012-04-20 17:58:28
Writing application : mkvmerge v5.5.0 ('Healer') built on Apr 10 2012 09:33:48
Writing library : libebml v1.2.3 + libmatroska v1.3.0
Video
ID : 1
Format : AVC
Format/Info : Advanced Video Codec
Format profile : High@L4.1
Format settings, CABAC : Yes
Format settings, ReFrames : 5 frames
Codec ID : V_MPEG4/ISO/AVC
Duration : 2h 54mn
Bit rate : 5 884 Kbps
Width : 1 920 pixels
Height : 800 pixels
Display aspect ratio : 2.40:1
Frame rate : 23.976 fps
Color space : YUV
Chroma subsampling : 4:2:0
Bit depth : 8 bits
Scan type : Progressive
Bits/(Pixel*Frame) : 0.160
Stream size : 7.01 GiB (88%)
Title : Rip by Boriy
Writing library : x264 core 122 r2184 5c85e0a
Encoding settings : cabac=1 / ref=5 / deblock=1:0:0 / analyse=0x3:0x113 / me=umh / subme=10 / psy=1 / psy_rd=1.00:0.10 / mixed_ref=1 / me_range=32 / chroma_me=1 / trellis=2 / 8x8dct=1 / cqm=0 / deadzone=21,11 / fast_pskip=0 / chroma_qp_offset=-3 / threads=12 / sliced_threads=0 / nr=0 / decimate=0 / interlaced=0 / bluray_compat=0 / constrained_intra=0 / bframes=5 / b_pyramid=2 / b_adapt=2 / b_bias=0 / direct=3 / weightb=1 / open_gop=0 / weightp=2 / keyint=240 / keyint_min=23 / scenecut=40 / intra_refresh=0 / rc_lookahead=60 / rc=2pass / mbtree=1 / bitrate=5884 / ratetol=1.0 / qcomp=0.60 / qpmin=0 / qpmax=69 / qpstep=4 / cplxblur=20.0 / qblur=0.5 / ip_ratio=1.40 / aq=1:1.00
Language : English
Default : Yes
Forced : No
Audio
ID : 2
Format : AC-3
Format/Info : Audio Coding 3
Mode extension : CM (complete main)
Format settings, Endianness : Big
Codec ID : A_AC3
Duration : 2h 54mn
Bit rate mode : Constant
Bit rate : 640 Kbps
Channel(s) : 6 channels
Channel positions : Front: L C R, Side: L R, LFE
Sampling rate : 48.0 KHz
Bit depth : 16 bits
Compression mode : Lossy
Stream size : 799 MiB (10%)
Title : Профессиональный (многоголосый, закадровый)
Language : Russian
Default : Yes
Forced : No
Text #1
ID : 3
Format : UTF-8
Codec ID : S_TEXT/UTF8
Codec ID/Info : UTF-8 Plain Text
Language : Russian
Default : No
Forced : No
Text #2
ID : 4
Format : UTF-8
Codec ID : S_TEXT/UTF8
Codec ID/Info : UTF-8 Plain Text
Language : English
Default : No
Forced : No
Menu
00:00:00.000 : en:00:00:00.000
00:10:09.232 : en:00:10:09.232
00:17:27.463 : en:00:17:27.463
00:31:01.192 : en:00:31:01.192
00:38:14.417 : en:00:38:14.417
00:52:07.833 : en:00:52:07.833
01:06:43.040 : en:01:06:43.040
01:18:50.392 : en:01:18:50.392
01:27:39.003 : en:01:27:39.003
01:34:35.419 : en:01:34:35.419
01:49:19.302 : en:01:49:19.302
02:01:19.355 : en:02:01:19.355
02:08:03.842 : en:02:08:03.842
02:18:17.664 : en:02:18:17.664
02:29:55.861 : en:02:29:55.861
02:37:31.150 : en:02:37:31.150
[Профиль] [ЛС]
Кто просматривает тему:

Показать сообщения:    

Текущее время: Сегодня 08:55

Часовой пояс: GMT



Вы не можете начинать темы
Вы не можете отвечать на сообщения
Вы не можете редактировать свои сообщения
Вы не можете удалять свои сообщения
Вы не можете голосовать в опросах
Вы не можете прикреплять файлы к сообщениям
Вы не можете скачивать файлы