Код апокалипсиса (2007) BDRip 1080p

 
Автор Сообщение

sergej644 ®

Пол:

Стаж: 4 года 11 месяцев

Сообщений: 6043

Откуда: Soviet Union



Награды: Нет

Торрент-статистика

Создавать темы 31-Окт-2014 17:51

[Цитировать]

--Код апокалипсиса (2007)
Информация о фильме
Название: Код апокалипсиса
Год выхода: 2007
Страна: Россия
Выпущено: Alligator Reklamefilm, BS Graphics, C.R.G. International, Kinostudiya Svet, Koloss Productions, Podderzhki Patrioticheskogo Kino, Salon Films, Top Line Production, Tsentralnaya teleradiostudiya Ministerstva oborony Ukrainy
Жанр: Боевик, приключения
Продолжительность: 01:50:01
Перевод: Оригинал
Режиссер: Вадим Шмелев
В ролях: Анастасия Заворотнюк, Венсан Перес, Владимир Меньшов, Алексей Серебряков, Олег Штефанко, Оскар Кучера, Сергей Газаров, Борис Токарев, Георгий Тесля-Герасимов, Анжелика Каширина, Александр Цуркан, Анатолий Котенев, Сергей Перебоев, Александр Тютин, Кирилл Сафонов, Руслан Хабибуллов, Алексей Аванесов-О фильме: Террорист № 1 Джаффад Бен Зайиди похитил с затонувшей американской подлодки четыре ядерные боеголовки, спрятав их в крупнейших мегаполисах мира. Заряд активируется одиннадцатизначным кодом, узнать который можно лишь собрав воедино цифры, известные трем приближенным Джаффада, которых никто не видел в лицо. Но террориста убивают при странных обстоятельствах, а его бывший напарник по прозвищу Палач намерен привести бомбы в действие. По его следу пускаются объединившие усилия ФСБ и ЦРУ, чей агент Мари несколько лет назад внедрилась в группировку Джаффада. Теперь под новой легендой ей предстоит спасти мир.
-Файл
Кодек: x264
Формат: MKV
Качество: BDRip 1080p
Видео: AVC (High@L4.1) 1920x816 (2.35:1), 23.976 fps, 5245 kbps, 0.140 Bits/Pixel
Аудио: DD (AC-3) 5.1 ch, 448 kbps
Субтитры: Английские--

MI

General
Unique ID : 203088388101985534219502847149157563423 (0x98C9669AD91F69639D8359C0FB26BC1F)
Format : Matroska
Format version : Version 2
File size : 4.37 GiB
Duration : 1h 50mn
Overall bit rate : 5 689 Kbps
Movie name : Код апокалипсиса (2007) BDRip (1080p)
Encoded date : UTC 2013-02-16 09:44:22
Writing application : mkvmerge v5.8.0 ('No Sleep / Pillow') built on Sep 2 2012 15:37:04
Writing library : libebml v1.2.3 + libmatroska v1.3.0
Video
ID : 1
Format : AVC
Format/Info : Advanced Video Codec
Format profile : High@L4.1
Format settings, CABAC : Yes
Format settings, ReFrames : 5 frames
Codec ID : V_MPEG4/ISO/AVC
Duration : 1h 50mn
Bit rate : 5 245 Kbps
Width : 1 920 pixels
Height : 816 pixels
Display aspect ratio : 2.35:1
Frame rate mode : Constant
Frame rate : 23.976 fps
Color space : YUV
Chroma subsampling : 4:2:0
Bit depth : 8 bits
Scan type : Progressive
Bits/(Pixel*Frame) : 0.140
Stream size : 3.94 GiB (90%)
Title : Release by Alex260680
Writing library : x264 core 129 r2245 bc13772
Encoding settings : cabac=1 / ref=5 / deblock=1:0:0 / analyse=0x3:0x113 / me=umh / subme=11 / psy=1 / psy_rd=1.00:0.10 / mixed_ref=1 / me_range=32 / chroma_me=1 / trellis=2 / 8x8dct=1 / cqm=0 / deadzone=21,11 / fast_pskip=0 / chroma_qp_offset=-3 / threads=12 / lookahead_threads=2 / sliced_threads=0 / nr=0 / decimate=0 / interlaced=0 / bluray_compat=0 / constrained_intra=0 / bframes=5 / b_pyramid=2 / b_adapt=2 / b_bias=0 / direct=3 / weightb=1 / open_gop=0 / weightp=2 / keyint=240 / keyint_min=23 / scenecut=40 / intra_refresh=0 / rc=2pass / mbtree=0 / bitrate=5245 / ratetol=1.0 / qcomp=0.60 / qpmin=0 / qpmax=69 / qpstep=4 / cplxblur=20.0 / qblur=0.5 / ip_ratio=1.40 / pb_ratio=1.30 / aq=1:0.80
Language : Russian
Default : Yes
Forced : No
Audio
ID : 2
Format : AC-3
Format/Info : Audio Coding 3
Mode extension : CM (complete main)
Format settings, Endianness : Big
Codec ID : A_AC3
Duration : 1h 50mn
Bit rate mode : Constant
Bit rate : 448 Kbps
Channel(s) : 6 channels
Channel positions : Front: L C R, Side: L R, LFE
Sampling rate : 48.0 KHz
Bit depth : 16 bits
Compression mode : Lossy
Stream size : 353 MiB (8%)
Title : Original
Language : Russian
Default : Yes
Forced : No
Text
ID : 3
Format : UTF-8
Codec ID : S_TEXT/UTF8
Codec ID/Info : UTF-8 Plain Text
Language : English
Default : No
Forced : No
Menu
00:00:00.000 : en:Chapter1
00:07:46.591 : en:Chapter2
00:19:34.840 : en:Chapter3
00:30:17.565 : en:Chapter4
00:40:08.614 : en:Chapter5
00:49:01.104 : en:Chapter6
01:01:02.867 : en:Chapter7
01:09:20.281 : en:Chapter8
01:19:58.835 : en:Chapter9
01:29:47.256 : en:Chapter10
01:37:58.622 : en:Chapter11
01:40:21.015 : en:Chapter12

x264

x264 [info]: frame I:1162 Avg QP:17.10 size:142426
x264 [info]: frame P:37955 Avg QP:20.05 size: 53357
x264 [info]: frame B:119159 Avg QP:21.74 size: 17899
-Скриншоты
-
[Профиль] [ЛС]
Кто просматривает тему:

Показать сообщения:    

Текущее время: Сегодня 22:32

Часовой пояс: GMT



Вы не можете начинать темы
Вы не можете отвечать на сообщения
Вы не можете редактировать свои сообщения
Вы не можете удалять свои сообщения
Вы не можете голосовать в опросах
Вы не можете прикреплять файлы к сообщениям
Вы не можете скачивать файлы