Когда пробьёт 8 склянок / When Eight Bells Toll (1971) BDRip-AVC | Р

 
Автор Сообщение

Swager ®

Пол:

Стаж: 2 года 2 месяца

Сообщений: 1379



Награды: 4 (Подробнее)

За внесенный вклад в развитие сайта (Количество: 1) Mega Seeder 2 (Количество: 1) Top Releaser 2 (Количество: 1)
Торрент-статистика

Создавать темы 11-Окт-2017 10:58

[Цитировать]

Когда пробьёт 8 склянок / When Eight Bells Toll
Страна: Великобритания
Производство: Winkast Film Productions Ltd., Jerry Gershwin-Elliott Kastner
Год выпуска: 1971
Жанр: боевик, криминал, детектив, приключения
Продолжительность: 01:34:13
Режиссер: Этьен Перье
Автор сценария: Алистер МакЛин
В ролях: Энтони Хопкинс, Роберт Морли, Натали Делон, Джек Хоукинс, Корин Редгрейв, Дерек Бонд, Ферди Мэйн, Морис Роевз, Леон Коллинз
Описание: Исчез корабль, на котором находился особо ценный груз: немалое количество слитков золота. Очевидно, что в этом районе моря бандитствуют пираты. Кто они..? Где их логово..? Как найти на них управу..? Для того, чтобы попытаться ответить на целую кучу вопросов, в опасный регион отправляется спецагент...

Перевод: Профессиональный (многоголосый, закадровый)
Субтитры: нет-Качество: BDRip-AVC | исходник When.Eight.Bells.Toll.1971.BDRemux
Формат: МКV
Видео кодек: AVC
Аудио кодек: АС3 | FLAC
Видео: 1052x450 (2.35:1), 23.976 fps, MPEG-4 AVC ~4 355 kbps avg
Аудио №1: 48.0 kHz, AC3 Dolby Digital, 2/0 (L,R) ch, ~192 | RUS
Аудио №2: 48.0 kHz, AC3 Dolby Digital, 2/0 (L,R) ch, ~192 | ENG
Дата премьеры (мир): 9 марта 1971

Media Info

Формат : Matroska
Версия формата : Version 2
Размер файла : 3,18 Гбайт
Продолжительность : 1 ч. 34 м.
Общий поток : 4836 Кбит/сек
Дата кодирования : UTC 2016-08-21 06:41:02
Программа кодирования : mkvmerge v7.6.0 ('Garden of Dreams') 32bit built on Feb 11 2015 00:18:47
Библиотека кодирования : libebml v1.3.1 + libmatroska v1.4.2
Видео
Идентификатор : 1
Формат : AVC
Формат/Информация : Advanced Video Codec
Профиль формата : High@L4.1
Параметр CABAC формата : Да
Параметр ReFrames формата : 14 кадров
Идентификатор кодека : V_MPEG4/ISO/AVC
Продолжительность : 1 ч. 34 м.
Битрейт : 4355 Кбит/сек
Ширина : 1052 пикселя
Высота : 450 пикселей
Соотношение сторон : 2,35:1
Режим частоты кадров : Постоянный
Частота кадров : 23,976 (24000/1001) кадра/сек
Цветовое пространство : YUV
Субдискретизация насыщенности : 4:2:0
Битовая глубина : 8 бит
Тип развёртки : Прогрессивная
Бит/(Пиксели*Кадры) : 0.384
Размер потока : 2,87 Гбайт (90%)
Библиотека кодирования : x264 core 148 r2638 7599210
Настройки программы : cabac=1 / ref=14 / deblock=1:-2:-2 / analyse=0x3:0x133 / me=umh / subme=11 / psy=1 / psy_rd=1.00:0.00 / mixed_ref=1 / me_range=32 / chroma_me=1 / trellis=2 / 8x8dct=1 / cqm=0 / deadzone=21,11 / fast_pskip=1 / chroma_qp_offset=-2 / threads=6 / lookahead_threads=1 / sliced_threads=0 / nr=0 / decimate=0 / interlaced=0 / bluray_compat=0 / constrained_intra=0 / bframes=16 / b_pyramid=2 / b_adapt=2 / b_bias=0 / direct=1 / weightb=1 / open_gop=0 / weightp=2 / keyint=240 / keyint_min=23 / scenecut=40 / intra_refresh=0 / rc_lookahead=50 / rc=crf / mbtree=0 / crf=18.5 / qcomp=0.60 / qpmin=0 / qpmax=69 / qpstep=4 / vbv_maxrate=62500 / vbv_bufsize=78125 / crf_max=0.0 / nal_hrd=none / filler=0 / ip_ratio=1.40 / pb_ratio=1.30 / aq=2:1.00
Default : Да
Forced : Нет
Цветовой диапазон : Limited
Основные цвета : BT.709
Характеристики трансфера : BT.709
Коэффициенты матрицы : BT.709
Statistics Tags Issue : mkvmerge v8.5.2 ('Crosses') 32bit 2016-08-21 02:18:54 / mkvmerge v7.6.0 ('Garden of Dreams') 32bit built on Feb 11 2015 00:18:47 2016-08-21 06:41:02
FromStats_BitRate : 4450343
FromStats_Duration : 01:34:13.022000000
FromStats_FrameCount : 135537
FromStats_StreamSize : 3144736179
Аудио #1
Идентификатор : 2
Формат : AC-3
Формат/Информация : Audio Coding 3
Расширение режима : CM (complete main)
Параметр Endianness формата : Big
Идентификатор кодека : A_AC3
Продолжительность : 1 ч. 34 м.
Вид битрейта : Постоянный
Битрейт : 192 Кбит/сек
Каналы : 2 канала
Расположение каналов : Front: L R
Частота : 48,0 КГц
Частота кадров : 31,250 кадров/сек (1536 spf)
Метод сжатия : С потерями
Размер потока : 129 Мбайт (4%)
Заголовок : закадровый R5
Язык : Russian
Default : Да
Forced : Нет
Аудио #2
Идентификатор : 3
Формат : AC-3
Формат/Информация : Audio Coding 3
Расширение режима : CM (complete main)
Параметр Endianness формата : Big
Идентификатор кодека : A_AC3
Продолжительность : 1 ч. 34 м.
Вид битрейта : Постоянный
Битрейт : 192 Кбит/сек
Каналы : 2 канала
Расположение каналов : Front: L R
Частота : 48,0 КГц
Частота кадров : 31,250 кадров/сек (1536 spf)
Метод сжатия : С потерями
Размер потока : 129 Мбайт (4%)
Заголовок : оригинал
Язык : English
Default : Нет
Forced : Нет
Меню
00:00:00.000 : en:00:00:00.000
00:09:20.142 : en:00:09:20.142
00:18:11.589 : en:00:18:11.589
00:30:56.729 : en:00:30:56.729
00:45:41.905 : en:00:45:41.905
00:57:33.824 : en:00:57:33.824
01:12:45.027 : en:01:12:45.027
01:23:47.063 : en:01:23:47.063

Скриншоты

[Профиль] [ЛС]
Кто просматривает тему:

Форум Тема Автор Размер
Chanson (Шансон) VA - Когда мы вместе навсегда - 2015, MP3, 256 kbps Magnat 707 MB
Viasat History Viasat History: День, когда… / The Day When... [серии 1-4 из 4] (Laurent Joffin and Laurent Portes) [2014 г., Документальный, игровой, биографический, история, SATRip] skorpionN 3.13 GB
Наши клипы Александр Маршал и Юлия Савичева - «Сюзанна» / VA - «Когда поют мужчины» (Эфир от 08.03.2014) [2014, Pop, HDTV 1080i] sergej644 223 MB
Сhanson БумеR - Когда уходят друзья [Полная версия] (2015) MP3 достали все 347 MB
Разная литература Галина Кизима | Сад и огород. Что? Когда? Как? 10000 самых полезных советов (2015) [FB2] достали все 1 MB
Фильмы (HD DVD, Blu-ray и BDRemux) День, когда Земля остановилась / The Day the Earth Stood Still (2008) BDRemux 1080p | D, A BOSS 23.8 GB
Фильмы 2006-2008 года День, когда Земля остановилась / The Day the Earth Stood Still (Скотт Дерриксон / Scott Derrickson) [2008, США, фантастика, триллер, драма, HDTVRip] [Open Matte] Dub TorrentFilm 1.46 GB
Фильмы (HD DVD, Blu-ray и BDRemux) День, когда свинья упала в колодец / Daijiga umule pajinnal (1996) BDRemux 1080р | L1 BOSS 22 GB
Показать сообщения:    

Текущее время: Сегодня 05:08

Часовой пояс: GMT



Вы не можете начинать темы
Вы не можете отвечать на сообщения
Вы не можете редактировать свои сообщения
Вы не можете удалять свои сообщения
Вы не можете голосовать в опросах
Вы не можете прикреплять файлы к сообщениям
Вы не можете скачивать файлы