Когда прилетают аисты (Петр Амиров, Зиновий Ройзман) [1978, кукольный мультфильм , DVB]

 
Автор Сообщение

TorrentFilm ®

Пол:

Стаж: 2 года

Сообщений: 7741



Награды: Нет

Торрент-статистика

Создавать темы 01-Янв-2016 00:16

[Цитировать]

Когда прилетают аисты
Жанр: кукольный мультфильм
Год выпуска: 1978
Продолжительность: 00:17:48
Режиссёр: Петр Амиров, Зиновий Ройзман
Описание: мультфильм о том, как хозяин забыл на поле огородное пугало. Наступила осень, птицы потянулись к югу и пугалу надоело висеть без дела на шесте. Он попросил ослика, чтобы тот помог ему слезть. В это время стая аистов собиралась в дорогу. Вяснилось, что один аистёнок не может лететь, его ранили охотники. Пугало вызвалось ухаживать за больным аистёнком всю зиму...
Доп. информация: по мотивам пьесы Л.Лопейской и К.Кручининой "Аистенок и пугало"

Релиз группы:
Трансляция спутникового канала: "Карусель"
Качество видео: DVB
Формат видео: MPEG-PS
Видео: MPEG2 Video, 720x576, 25 fps, 3500 kbps
Аудио: MPEG Audio, 2 сh, 48 kHz, 192 kbps

MediaInfo

General
Complete name : D:\Когда прилетают аисты. (1978)_DVB by SLuMeP.mpg
Format : MPEG-PS
File size : 480 MiB
Duration : 17mn 48s
Overall bit rate mode : Variable
Overall bit rate : 3 768 Kbps
Video #224
ID : 224 (0xE0)
Format : MPEG Video
Format version : Version 2
Format profile : Main@Main
Format settings, BVOP : Yes
Format settings, Matrix : Custom
Format settings, GOP : M=3, N=12
Duration : 17mn 48s
Bit rate mode : Variable
Bit rate : 3 501 Kbps
Maximum bit rate : 5 000 Kbps
Width : 720 pixels
Height : 576 pixels
Display aspect ratio : 4:3
Frame rate : 25.000 fps
Standard : PAL
Color space : YUV
Chroma subsampling : 4:2:0
Bit depth : 8 bits
Scan type : Interlaced
Scan order : Top Field First
Compression mode : Lossy
Bits/(Pixel*Frame) : 0.338
Stream size : 446 MiB (93%)
Audio #192
ID : 192 (0xC0)
Format : MPEG Audio
Format version : Version 1
Format profile : Layer 2
Duration : 17mn 48s
Bit rate mode : Constant
Bit rate : 192 Kbps
Channel(s) : 2 channels
Sampling rate : 48.0 KHz
Compression mode : Lossy
Stream size : 24.5 MiB (5%)

Скриншоты

[Профиль] [ЛС]
Кто просматривает тему:

Форум Тема Автор Размер
Chanson (Шансон) VA - Когда мы вместе навсегда - 2015, MP3, 256 kbps Magnat 707 MB
Наши клипы Александр Маршал и Юлия Савичева - «Сюзанна» / VA - «Когда поют мужчины» (Эфир от 08.03.2014) [2014, Pop, HDTV 1080i] sergej644 223 MB
Сhanson БумеR - Когда уходят друзья [Полная версия] (2015) MP3 достали все 347 MB
Разная литература Галина Кизима | Сад и огород. Что? Когда? Как? 10000 самых полезных советов (2015) [FB2] достали все 1 MB
Фильмы 2006-2008 года День, когда Земля остановилась / The Day the Earth Stood Still (Скотт Дерриксон / Scott Derrickson) [2008, США, фантастика, триллер, драма, HDTVRip] [Open Matte] Dub TorrentFilm 1.46 GB
Зарубежное кино (CAMRip, Telesynch, SCR) Джек Ричер 2: Никогда не возвращайся / Jack Reacher: Never Go Back (2016) CAMRip | D достали все 1.46 GB
Трейлеры Джек Ричер 2: Никогда не возвращайся / Jack Reacher: Never Go Back (2016) HD 1080 | Трейлер достали все 118 MB
Мультфильмы СССР Зимушка зима или Когда зажигаются ёлки (1948-1982) DVDRip BOSS 3.25 GB
Показать сообщения:    

Текущее время: Сегодня 08:48

Часовой пояс: GMT



Вы не можете начинать темы
Вы не можете отвечать на сообщения
Вы не можете редактировать свои сообщения
Вы не можете удалять свои сообщения
Вы не можете голосовать в опросах
Вы не можете прикреплять файлы к сообщениям
Вы не можете скачивать файлы