Когда поют ангелы / Angels Sing (2013) BDRip 720p | P

 
Автор Сообщение

sergej644 ®

Пол:

Стаж: 4 года 11 месяцев

Сообщений: 6046

Откуда: Soviet Union



Награды: Нет

Торрент-статистика

Создавать темы 19-Ноя-2014 11:45

[Цитировать]

Информация о фильме
Название: Когда поют ангелы
Оригинальное название: Angels Sing
Год выхода: 2013
Жанр: драма, комедия, семейный
Режиссер: Тим МакКэнлис
В ролях: Гарри Конник мл., Конни Бриттон, Чандлер Кентербери, Фионнула Флэнаган, Лайл Лаветт, Уилли Нельсон, Крис Кристофферсон, Дана Уиллер-Николсон, Элуиз Деджориа, Дилан Саммеролл
О фильме:
Когда Майкл Уолкер был ребенком, он очень любил Рождество и хотел, чтобы оно было каждый день. Так продолжалось, пока трагический случай не уничтожил его праздничное настроение. Тридцать лет спустя Майкл все так же не в состоянии ощущать радость от праздников, несмотря на поддержку своей жены. Но когда его юный сын сталкивается с трагедией, главному герою придется загладить свою вину перед прошлым.

Выпущено: США / When Angels Sing
Продолжительность: 01:27:04
Озвучивание: Профессиональное (многоголосое)
Файл
Формат: MKV
Качество: BDRip 720p
Видео: 5664 Кb/s, 1280x720
Аудио: Russian: AC3, 384 Кb/s (6 ch) / English: DTS, 1510 Kb/s (6 ch)
Субтитры: English
Дополнительно: Нет
Релиз группы &

Скриншоты

NFO:

Общее
Уникальный идентификатор : 195707334494544474650776346103208815465 (0x933BDC90C39D94D397B3B31B70AD2B69)
Полное имя : F:ангелыAngels.Sing.2013.ELEKTRI4KA.720p.mkv
Формат : Matroska
Версия формата : Version 2
Размер файла : 4,60 Гбайт
Продолжительность : 1 ч. 27 м.
Общий поток : 7558 Кбит/сек
Название фильма : Angels.Sing.2013.ELEKTRI4KA
Дата кодирования : UTC 2014-11-16 09:21:46
Программа кодирования : mkvmerge v5.6.0 ('Kenya Kane') built on Jun 29 2012 15:01:44
Библиотека кодирования : libebml v1.2.3 + libmatroska v1.3.0
Видео
Идентификатор : 1
Формат : AVC
Формат/Информация : Advanced Video Codec
Профиль формата : High@L4.1
Параметр CABAC формата : Да
Параметр ReFrames формата : 5 кадров
Идентификатор кодека : V_MPEG4/ISO/AVC
Продолжительность : 1 ч. 27 м.
Битрейт : 5664 Кбит/сек
Ширина : 1280 пикселей
Высота : 720 пикселей
Соотношение сторон : 16:9
Режим частоты кадров : Постоянный
Частота кадров : 23,976 кадра/сек
Цветовое пространство : YUV
Субдискретизация насыщенности : 4:2:0
Битовая глубина : 8 бит
Тип развёртки : Прогрессивная
Бит/(Пиксели*Кадры) : 0.256
Размер потока : 3,35 Гбайт (73%)
Заголовок : Angels.Sing.2013.ELEKTRI4KA
Библиотека кодирования : x264 core 140 r2377 1ca7bb9
Настройки программы : cabac=1 / ref=5 / deblock=1:-1:-1 / analyse=0x3:0x113 / me=umh / subme=7 / psy=1 / psy_rd=1.00:0.00 / mixed_ref=1 / me_range=16 / chroma_me=1 / trellis=1 / 8x8dct=1 / cqm=0 / deadzone=21,11 / fast_pskip=1 / chroma_qp_offset=-2 / threads=12 / lookahead_threads=2 / sliced_threads=0 / nr=0 / decimate=1 / interlaced=0 / bluray_compat=0 / constrained_intra=0 / bframes=3 / b_pyramid=2 / b_adapt=2 / b_bias=0 / direct=3 / weightb=1 / open_gop=0 / weightp=2 / keyint=250 / keyint_min=23 / scenecut=40 / intra_refresh=0 / rc_lookahead=40 / rc=2pass / mbtree=1 / bitrate=5664 / ratetol=1.0 / qcomp=0.60 / qpmin=0 / qpmax=69 / qpstep=4 / cplxblur=20.0 / qblur=0.5 / vbv_maxrate=50000 / vbv_bufsize=50000 / nal_hrd=none / filler=0 / ip_ratio=1.40 / aq=1:1.00
Язык : English
Default : Да
Forced : Нет
Аудио #1
Идентификатор : 2
Формат : AC-3
Формат/Информация : Audio Coding 3
Расширение режима : CM (complete main)
Параметр Endianness формата : Big
Идентификатор кодека : A_AC3
Продолжительность : 1 ч. 27 м.
Вид битрейта : Постоянный
Битрейт : 384 Кбит/сек
Каналы : 2 канала
Расположение каналов : Front: L R
Частота : 48,0 КГц
Битовая глубина : 16 бит
Метод сжатия : С потерями
Размер потока : 239 Мбайт (5%)
Заголовок : Angels.Sing.2013.Rus.P.kolbas.[www.rustorrents.org]
Язык : Russian
Default : Да
Forced : Нет
Аудио #2
Идентификатор : 3
Формат : DTS
Формат/Информация : Digital Theater Systems
Режим : 16
Параметр Endianness формата : Big
Идентификатор кодека : A_DTS
Продолжительность : 1 ч. 27 м.
Вид битрейта : Постоянный
Битрейт : 1509 Кбит/сек
Каналы : 6 каналов
Расположение каналов : Front: L C R, Side: L R, LFE
Частота : 48,0 КГц
Битовая глубина : 24 бит
Метод сжатия : С потерями
Размер потока : 940 Мбайт (20%)
Заголовок : Angels.Sing.2013.ELEKTRI4KA
Язык : English
Default : Нет
Forced : Нет
Текст
Идентификатор : 4
Формат : UTF-8
Идентификатор кодека : S_TEXT/UTF8
Идентификатор кодека/Информация : UTF-8 Plain Text
Заголовок : Angels.Sing.2013.ELEKTRI4KA
Язык : English
Default : Нет
Forced : Нет
[Профиль] [ЛС]
Кто просматривает тему:

Форум Тема Автор Размер
Chanson (Шансон) VA - Когда мы вместе навсегда - 2015, MP3, 256 kbps Magnat 707 MB
Viasat History Viasat History: День, когда… / The Day When... [серии 1 из 3] (Laurent Joffin and Laurent Portes) [2014 г., Документальный, игровой, биографический, история, SATRip] skorpionN 797 MB
Наши клипы Александр Маршал и Юлия Савичева - «Сюзанна» / VA - «Когда поют мужчины» (Эфир от 08.03.2014) [2014, Pop, HDTV 1080i] sergej644 223 MB
Сhanson БумеR - Когда уходят друзья [Полная версия] (2015) MP3 достали все 347 MB
Разная литература Галина Кизима | Сад и огород. Что? Когда? Как? 10000 самых полезных советов (2015) [FB2] достали все 1 MB
Фильмы 2006-2008 года День, когда Земля остановилась / The Day the Earth Stood Still (Скотт Дерриксон / Scott Derrickson) [2008, США, фантастика, триллер, драма, HDTVRip] [Open Matte] Dub TorrentFilm 1.46 GB
Зарубежное кино (CAMRip, Telesynch, SCR) Джек Ричер 2: Никогда не возвращайся / Jack Reacher: Never Go Back (2016) CAMRip | D достали все 1.46 GB
Трейлеры Джек Ричер 2: Никогда не возвращайся / Jack Reacher: Never Go Back (2016) HD 1080 | Трейлер достали все 118 MB
Показать сообщения:    

Текущее время: Сегодня 13:51

Часовой пояс: GMT



Вы не можете начинать темы
Вы не можете отвечать на сообщения
Вы не можете редактировать свои сообщения
Вы не можете удалять свои сообщения
Вы не можете голосовать в опросах
Вы не можете прикреплять файлы к сообщениям
Вы не можете скачивать файлы