Когда мы познакомились / When We First Met (2018) WEBRip | Jaskier

 
Автор Сообщение

BOSS ®

Пол:

Стаж: 3 года 8 месяцев

Сообщений: 10635

Откуда: ODESSA



Награды: 22 (Подробнее)

Top Seeder 3 (Количество: 1) Top Seeder 4 (Количество: 1) Top Keeper 1 (Количество: 1)
Торрент-статистика

Создавать темы 12-Июн-2018 16:34

[Цитировать]

Информация о фильме
Название: Когда мы познакомились
Оригинальное название: When We First Met
Год выхода: 2018
Жанр: Комедия
Режиссер: Эри Сандел
В ролях: Александра Даддарио, Робби Амелл, Адам Дивайн, Норин ДеВулф, Шелли Хенниг, Эндрю Бэчелор, Тони Кавалеро, Тени Интриаго, Крис Уайлд, Дин Уэст и другие
О фильме:
Парню по имени Ной посчастливилось встретить идеальную девушку и провести с ней идеальную ночь. Но после этого на него был повешен ярлык «просто друг», и лишь спустя долгих три года Ною выпадает шанс разобраться, в чём он оплошал. Отправившись в прошлое, Ной снова и снова переживает незабываемое свидание в надежде на другой финал.

Страна: США, Footprint Features, Long Road Film, MXN Entertainment
Продолжительность: 01:37:02
Перевод: Профессиональный (многоголосый, закадровый) Jaskier
Файл
Формат: AVI
Качество: WEBRip
Видео: XviD, 720x400, 23.976 fps, 1614 kbps
Звук: AC3, 6 ch, 384 kbps
Субтитры: отсутствуют
***Примечание: Без рекламы.

MI

Общее
Полное имя : D:ЯскъерWhen.We.First.Met.2018.NF.WEBRip.Jaskier.avi
Формат : AVI
Формат/Информация : Audio Video Interleave
Размер файла : 1,36 Гбайт
Продолжительность : 1 ч. 37 м.
Общий поток : 2007 Кбит/сек
Программа кодирования : VirtualDubMod 1.5.10.3 | www.virtualdub-fr.org || (build 2550/release)
Библиотека кодирования : VirtualDubMod build 2550/release
Видео
Идентификатор : 0
Формат : MPEG-4 Visual
Профиль формата : Advanced Simple@L5
Настройки формата : BVOP2 / Custom Matrix
Параметр BVOP формата : 2
Параметр QPel формата : Нет
Параметр GMC формата : Без точки перехода
Параметр матрицы формата : Выборочная
Идентификатор кодека : XVID
Идентификатор кодека/Подсказка : XviD
Продолжительность : 1 ч. 37 м.
Битрейт : 1614 Кбит/сек
Ширина : 720 пикселей
Высота : 400 пикселей
Соотношение сторон : 16:9
Частота кадров : 23,976 (24000/1001) кадра/сек
Цветовое пространство : YUV
Субдискретизация насыщенности : 4:2:0
Битовая глубина : 8 бит
Тип развёртки : Прогрессивная
Метод сжатия : С потерями
Бит/(Пиксели*Кадры) : 0.234
Размер потока : 1,09 Гбайт (80%)
Библиотека кодирования : XviD 73
Аудио
Идентификатор : 1
Формат : AC-3
Формат/Информация : Audio Coding 3
Идентификатор кодека : 2000
Продолжительность : 1 ч. 37 м.
Вид битрейта : Постоянный
Битрейт : 384 Кбит/сек
Каналы : 6 каналов
Расположение каналов : Front: L C R, Side: L R, LFE
Частота : 48,0 КГц
Частота кадров : 31,250 кадров/сек (1536 SPF)
Битовая глубина : 16 бит
Метод сжатия : С потерями
Размер потока : 267 Мбайт (19%)
Выравнивание : Разделение по промежуткам
Продолжительность промежутка : 42 мс. (1,00 видеокадр)
Время предзагрузки промежутка : 500 мс.

Скриншоты

Релиз от: JASKiER
[Профиль] [ЛС]
Кто просматривает тему:

Форум Тема Автор Размер
Chanson (Шансон) VA - Когда мы вместе навсегда - 2015, MP3, 256 kbps Magnat 707 MB
Viasat History Viasat History: День, когда… / The Day When... [серии 1-4 из 4] (Laurent Joffin and Laurent Portes) [2014 г., Документальный, игровой, биографический, история, SATRip] skorpionN 3.13 GB
Наши клипы Александр Маршал и Юлия Савичева - «Сюзанна» / VA - «Когда поют мужчины» (Эфир от 08.03.2014) [2014, Pop, HDTV 1080i] sergej644 223 MB
Сhanson БумеR - Когда уходят друзья [Полная версия] (2015) MP3 достали все 347 MB
Разная литература Галина Кизима | Сад и огород. Что? Когда? Как? 10000 самых полезных советов (2015) [FB2] достали все 1 MB
Фильмы (HD DVD, Blu-ray и BDRemux) День, когда Земля остановилась / The Day the Earth Stood Still (2008) BDRemux 1080p | D, A BOSS 23.8 GB
Фильмы 2006-2008 года День, когда Земля остановилась / The Day the Earth Stood Still (Скотт Дерриксон / Scott Derrickson) [2008, США, фантастика, триллер, драма, HDTVRip] [Open Matte] Dub TorrentFilm 1.46 GB
Фильмы (HD DVD, Blu-ray и BDRemux) День, когда свинья упала в колодец / Daijiga umule pajinnal (1996) BDRemux 1080р | L1 BOSS 22 GB
Показать сообщения:    

Текущее время: Сегодня 21:33

Часовой пояс: GMT



Вы не можете начинать темы
Вы не можете отвечать на сообщения
Вы не можете редактировать свои сообщения
Вы не можете удалять свои сообщения
Вы не можете голосовать в опросах
Вы не можете прикреплять файлы к сообщениям
Вы не можете скачивать файлы