Когда мы познакомились / When We First Met (2018) WEBRip 720p | Jaskier

 
Автор Сообщение

BOSS ®

Пол:

Стаж: 3 года 8 месяцев

Сообщений: 10631

Откуда: ODESSA



Награды: 22 (Подробнее)

Top Releaser 5 (Количество: 1) Top Releaser 4 (Количество: 1) Mega Releaser 1 (Количество: 1)
Торрент-статистика

Создавать темы 12-Июн-2018 16:33

[Цитировать]

Информация о фильме
Название: Когда мы познакомились
Оригинальное название: When We First Met
Год выхода: 2018
Жанр: Комедия
Режиссер: Эри Сандел
В ролях: Александра Даддарио, Робби Амелл, Адам Дивайн, Норин ДеВулф, Шелли Хенниг, Эндрю Бэчелор, Тони Кавалеро, Тени Интриаго, Крис Уайлд, Дин Уэст и другие
О фильме:
Парню по имени Ной посчастливилось встретить идеальную девушку и провести с ней идеальную ночь. Но после этого на него был повешен ярлык «просто друг», и лишь спустя долгих три года Ною выпадает шанс разобраться, в чём он оплошал. Отправившись в прошлое, Ной снова и снова переживает незабываемое свидание в надежде на другой финал.

Страна: США, Footprint Features, Long Road Film, MXN Entertainment
Продолжительность: 01:37:02
Перевод: Профессиональный (многоголосый, закадровый) Jaskier
Файл
Формат: MKV
Качество: WEBRip 720p
Видео: MPEG-4 AVC, 2870 kb/s, 1280x720
Аудио: Russian: / English: AC3, 384 kb/s (6 ch)
Субтитры: английские (full)
***Примечание: Без рекламы.

MI

Общее
Уникальный идентификатор : 171719261885425501399557383762176770938 (0x812FED45FF440B549290197A411A037A)
Полное имя : D:ЯскъерWhen.We.First.Met.2018.720p.NF.WEBRip.DD5.1.x264-Jaskier.mkv
Формат : Matroska
Версия формата : Version 2
Размер файла : 2,46 Гбайт
Продолжительность : 1 ч. 37 м.
Режим общего битрейта : Переменный
Общий поток : 3622 Кбит/сек
Дата кодирования : UTC 2018-06-11 23:48:02
Программа кодирования : mkvmerge v7.8.0 ('River Man') 32bit built on Apr 3 2015 12:11:22
Библиотека кодирования : libebml v1.3.1 + libmatroska v1.4.2
Видео
Идентификатор : 1
Формат : AVC
Формат/Информация : Advanced Video Codec
Профиль формата : Main@L3.1
Настройки формата : CABAC / 3 Ref Frames
Параметр CABAC формата : Да
Параметр RefFrames формата : 3 кадра
Идентификатор кодека : V_MPEG4/ISO/AVC
Продолжительность : 1 ч. 37 м.
Вид битрейта : Переменный
Битрейт : 2870 Кбит/сек
Максимальный битрейт : 4305 Кбит/сек
Ширина : 1280 пикселей
Высота : 720 пикселей
Соотношение сторон : 16:9
Режим частоты кадров : Постоянный
Частота кадров : 23,976 (24000/1001) кадра/сек
Цветовое пространство : YUV
Субдискретизация насыщенности : 4:2:0
Битовая глубина : 8 бит
Тип развёртки : Прогрессивная
Бит/(Пиксели*Кадры) : 0.130
Размер потока : 1,89 Гбайт (77%)
Библиотека кодирования : x264 core 118
Настройки программы : cabac=1 / ref=3 / deblock=1:0:0 / analyse=0x1:0x111 / me=umh / subme=10 / psy=1 / psy_rd=1.00:0.00 / mixed_ref=1 / me_range=24 / chroma_me=1 / trellis=2 / 8x8dct=0 / cqm=0 / deadzone=21,11 / fast_pskip=1 / chroma_qp_offset=-2 / threads=8 / sliced_threads=0 / nr=0 / decimate=1 / interlaced=0 / bluray_compat=0 / constrained_intra=0 / bframes=2 / b_pyramid=0 / b_adapt=2 / b_bias=0 / direct=3 / weightb=1 / open_gop=0 / weightp=2 / keyint=48 / keyint_min=25 / scenecut=0 / intra_refresh=0 / rc_lookahead=0 / rc=2pass / mbtree=1 / bitrate=2870 / ratetol=1.0 / qcomp=0.50 / qpmin=6 / qpmax=51 / qpstep=4 / cplxblur=20.0 / qblur=0.5 / vbv_maxrate=4305 / vbv_bufsize=5740 / nal_hrd=vbr / ip_ratio=1.40 / aq=1:1.00
Язык : English
Default : Да
Forced : Нет
Аудио #1
Идентификатор : 2
Формат : AC-3
Формат/Информация : Audio Coding 3
Идентификатор кодека : A_AC3
Продолжительность : 1 ч. 37 м.
Вид битрейта : Постоянный
Битрейт : 384 Кбит/сек
Каналы : 6 каналов
Расположение каналов : Front: L C R, Side: L R, LFE
Частота : 48,0 КГц
Частота кадров : 31,250 кадров/сек (1536 SPF)
Битовая глубина : 16 бит
Метод сжатия : С потерями
Размер потока : 267 Мбайт (11%)
Заголовок : Jaskier
Язык : Russian
Default : Да
Forced : Нет
Аудио #2
Идентификатор : 3
Формат : AC-3
Формат/Информация : Audio Coding 3
Идентификатор кодека : A_AC3
Продолжительность : 1 ч. 37 м.
Вид битрейта : Постоянный
Битрейт : 384 Кбит/сек
Каналы : 6 каналов
Расположение каналов : Front: L C R, Side: L R, LFE
Частота : 48,0 КГц
Частота кадров : 31,250 кадров/сек (1536 SPF)
Битовая глубина : 16 бит
Метод сжатия : С потерями
Размер потока : 267 Мбайт (11%)
Заголовок : Original
Язык : English
Default : Нет
Forced : Нет
Текст
Идентификатор : 4
Формат : UTF-8
Идентификатор кодека : S_TEXT/UTF8
Идентификатор кодека/Информация : UTF-8 Plain Text
Заголовок : Full
Язык : English
Default : Нет
Forced : Нет

Скриншоты

Релиз от: JASKiER
[Профиль] [ЛС]
Кто просматривает тему:

Форум Тема Автор Размер
Chanson (Шансон) VA - Когда мы вместе навсегда - 2015, MP3, 256 kbps Magnat 707 MB
Viasat History Viasat History: День, когда… / The Day When... [серии 1-4 из 4] (Laurent Joffin and Laurent Portes) [2014 г., Документальный, игровой, биографический, история, SATRip] skorpionN 3.13 GB
Наши клипы Александр Маршал и Юлия Савичева - «Сюзанна» / VA - «Когда поют мужчины» (Эфир от 08.03.2014) [2014, Pop, HDTV 1080i] sergej644 223 MB
Сhanson БумеR - Когда уходят друзья [Полная версия] (2015) MP3 достали все 347 MB
Разная литература Галина Кизима | Сад и огород. Что? Когда? Как? 10000 самых полезных советов (2015) [FB2] достали все 1 MB
Фильмы (HD DVD, Blu-ray и BDRemux) День, когда Земля остановилась / The Day the Earth Stood Still (2008) BDRemux 1080p | D, A BOSS 23.8 GB
Фильмы 2006-2008 года День, когда Земля остановилась / The Day the Earth Stood Still (Скотт Дерриксон / Scott Derrickson) [2008, США, фантастика, триллер, драма, HDTVRip] [Open Matte] Dub TorrentFilm 1.46 GB
Фильмы (HD DVD, Blu-ray и BDRemux) День, когда свинья упала в колодец / Daijiga umule pajinnal (1996) BDRemux 1080р | L1 BOSS 22 GB
Показать сообщения:    

Текущее время: Сегодня 11:58

Часовой пояс: GMT



Вы не можете начинать темы
Вы не можете отвечать на сообщения
Вы не можете редактировать свои сообщения
Вы не можете удалять свои сообщения
Вы не можете голосовать в опросах
Вы не можете прикреплять файлы к сообщениям
Вы не можете скачивать файлы