Когда звери мечтают / Nar dyrene drommer (2014) DVDRip-AVC | L2

 
Автор Сообщение

sergej644 ®

Пол:

Стаж: 4 года 11 месяцев

Сообщений: 6035

Откуда: Soviet Union



Награды: Нет

Торрент-статистика

Создавать темы 10-Дек-2014 19:30

[Цитировать]

Информация о фильме
Название: Когда животные видят сны / Когда звери мечтают
Оригинальное название: Nar dyrene drommer / When Animals Dream
Год выхода: 2014
Жанр: ужасы, драма
Режиссер: Йонас Александр Арнби
В ролях: Сония Суль, Ларс Миккельсен, Соня Рихтер, Якоб Офтебро, Мадс Риисом, Густав Дюэкьер Гисе, Стиг Хоффмайер, Бенджамин Бё Расмуссен, Тина Гюллинг Мортенсен, Эсбен Дальгор
О фильме:
Мари — скромная девушка, выросшая в отдаленной рыбацкой деревушке. Она живет вместе с отцом и матерью, которая прикована к инвалидной коляске. Когда на груди Мари появляется странная сыпь, она обращается к доктору, но беспокойство усиливается, когда по всему телу начинают расти волосы. Претерпевая все больше изменений, Мари вскоре начинает понимать, что семья хранит необъяснимые секреты, а нынешнее состояние матери напрямую связано с метаморфозой ее тела.

Выпущено: Дания
Продолжительность: 01:21:07
Озвучивание: Любительское (двухголосое) [Антон Агапов и Галина Васюкова] - перевод на русский язык [Станислав Бельков]
Файл
Формат: MKV
Качество: DVDRip-AVC
Видео: 1998 kb/s, 720x428@1024x428
Аудио: Russian / Danish: AC3, 448 kb/s (6 ch)
Дополнительно: Сохранены оригинальные чаптеры как на Blu-Ray
Размер: 1.63 GB
Скачать: Сэмпл---

Media Info

General
Unique ID : 239422581665337967257761735609311146432 (0xB41F1CA80BC18D76BF87755E0885B1C0)
Complete name : C:UsersuserDesktopWhen.Animals.Dream.2014.DVDRip.x264.mkv
Format : Matroska
Format version : Version 4 / Version 2
File size : 1.63 GiB
Duration : 1h 21mn
Overall bit rate : 2 880 Kbps
Movie name : Rip By ~Relizer~
Encoded date : UTC 2014-12-10 01:18:56
Writing application : mkvmerge v7.3.0 ('Nouages') 32bit built on Oct 22 2014 18:44:01
Writing library : libebml v1.3.0 + libmatroska v1.4.1
DURATION : 01:21:07.136000000
NUMBER_OF_FRAMES : 152098
NUMBER_OF_BYTES : 272559616
_STATISTICS_WRITING_APP : mkvmerge v7.3.0 ('Nouages') 32bit built on Oct 22 2014 18:44:01
_STATISTICS_WRITING_DATE_UTC : 2014-12-10 01:18:56
_STATISTICS_TAGS : BPS DURATION NUMBER_OF_FRAMES NUMBER_OF_BYTES
Video
ID : 1
Format : AVC
Format/Info : Advanced Video Codec
Format profile : High@L3.1
Format settings, CABAC : Yes
Format settings, ReFrames : 9 frames
Codec ID : V_MPEG4/ISO/AVC
Duration : 1h 21mn
Bit rate : 1 998 Kbps
Width : 720 pixels
Height : 428 pixels
Display aspect ratio : 2.40:1
Frame rate mode : Constant
Frame rate : 25.000 fps
Color space : YUV
Chroma subsampling : 4:2:0
Bit depth : 8 bits
Scan type : Progressive
Bits/(Pixel*Frame) : 0.259
Stream size : 1.09 GiB (67%)
Title : Rip By ~Relizer~
Writing library : x264 core 142 r2479 dd79a61
Encoding settings : cabac=1 / ref=9 / deblock=1:-3:-3 / analyse=0x3:0x133 / me=umh / subme=9 / psy=1 / psy_rd=1.00:0.00 / mixed_ref=1 / me_range=24 / chroma_me=1 / trellis=2 / 8x8dct=1 / cqm=0 / deadzone=21,11 / fast_pskip=0 / chroma_qp_offset=-2 / threads=6 / lookahead_threads=1 / sliced_threads=0 / nr=0 / decimate=1 / interlaced=0 / bluray_compat=0 / constrained_intra=0 / bframes=6 / b_pyramid=2 / b_adapt=2 / b_bias=0 / direct=3 / weightb=1 / open_gop=0 / weightp=2 / keyint=250 / keyint_min=25 / scenecut=40 / intra_refresh=0 / rc_lookahead=60 / rc=abr / mbtree=1 / bitrate=1998 / ratetol=1.0 / qcomp=0.60 / qpmin=0 / qpmax=69 / qpstep=4 / ip_ratio=1.40 / aq=2:1.00
Default : Yes
Forced : No
Color primaries : BT.601 PAL
Transfer characteristics : BT.709
Matrix coefficients : BT.601
Color range : Limited
DURATION : 01:21:04.840000000
NUMBER_OF_FRAMES : 121621
NUMBER_OF_BYTES : 1205700673
_STATISTICS_WRITING_APP : mkvmerge v7.3.0 ('Nouages') 32bit built on Oct 22 2014 18:44:01
_STATISTICS_WRITING_DATE_UTC : 2014-12-10 01:18:56
_STATISTICS_TAGS : BPS DURATION NUMBER_OF_FRAMES NUMBER_OF_BYTES
Audio #1
ID : 2
Format : AC-3
Format/Info : Audio Coding 3
Mode extension : CM (complete main)
Format settings, Endianness : Big
Codec ID : A_AC3
Duration : 1h 21mn
Bit rate mode : Constant
Bit rate : 448 Kbps
Channel(s) : 6 channels
Channel positions : Front: L C R, Side: L R, LFE
Sampling rate : 48.0 KHz
Bit depth : 16 bits
Compression mode : Lossy
Delay relative to video : -80ms
Stream size : 260 MiB (16%)
Title : Антон Агапов и Галина Васюкова
Language : Russian
Default : Yes
Forced : Yes
DURATION : 01:21:04.064000000
NUMBER_OF_FRAMES : 152002
NUMBER_OF_BYTES : 272387584
_STATISTICS_WRITING_APP : mkvmerge v7.3.0 ('Nouages') 32bit built on Oct 22 2014 18:44:01
_STATISTICS_WRITING_DATE_UTC : 2014-12-10 01:18:56
_STATISTICS_TAGS : BPS DURATION NUMBER_OF_FRAMES NUMBER_OF_BYTES
Audio #2
ID : 3
Format : AC-3
Format/Info : Audio Coding 3
Mode extension : CM (complete main)
Format settings, Endianness : Big
Codec ID : A_AC3
Duration : 1h 21mn
Bit rate mode : Constant
Bit rate : 448 Kbps
Channel(s) : 6 channels
Channel positions : Front: L C R, Side: L R, LFE
Sampling rate : 48.0 KHz
Bit depth : 16 bits
Compression mode : Lossy
Stream size : 260 MiB (16%)
Language : Danish
Default : No
Forced : No
Menu
00:00:00.000 : :Chapter 1
00:10:15.920 : :Chapter 2
00:20:37.520 : :Chapter 3
00:30:02.480 : :Chapter 4
00:39:52.880 : :Chapter 5
00:49:45.200 : :Chapter 6
01:00:06.800 : :Chapter 7
01:08:43.760 : :Chapter 8
01:16:48.080 : :Chapter 9
--- --- -

Скриншоты

-
[Профиль] [ЛС]
Кто просматривает тему:

Форум Тема Автор Размер
Chanson (Шансон) VA - Когда мы вместе навсегда - 2015, MP3, 256 kbps Magnat 707 MB
Наши клипы Александр Маршал и Юлия Савичева - «Сюзанна» / VA - «Когда поют мужчины» (Эфир от 08.03.2014) [2014, Pop, HDTV 1080i] sergej644 223 MB
Сhanson БумеR - Когда уходят друзья [Полная версия] (2015) MP3 достали все 347 MB
Разная литература Галина Кизима | Сад и огород. Что? Когда? Как? 10000 самых полезных советов (2015) [FB2] достали все 1 MB
Фильмы 2006-2008 года День, когда Земля остановилась / The Day the Earth Stood Still (Скотт Дерриксон / Scott Derrickson) [2008, США, фантастика, триллер, драма, HDTVRip] [Open Matte] Dub TorrentFilm 1.46 GB
Зарубежное кино (CAMRip, Telesynch, SCR) Джек Ричер 2: Никогда не возвращайся / Jack Reacher: Never Go Back (2016) CAMRip | D достали все 1.46 GB
Трейлеры Джек Ричер 2: Никогда не возвращайся / Jack Reacher: Never Go Back (2016) HD 1080 | Трейлер достали все 118 MB
Мультфильмы СССР Зимушка зима или Когда зажигаются ёлки (1948-1982) DVDRip BOSS 3.25 GB
Показать сообщения:    

Текущее время: Сегодня 00:34

Часовой пояс: GMT



Вы не можете начинать темы
Вы не можете отвечать на сообщения
Вы не можете редактировать свои сообщения
Вы не можете удалять свои сообщения
Вы не можете голосовать в опросах
Вы не можете прикреплять файлы к сообщениям
Вы не можете скачивать файлы