Когда животные видят сны / Когда звери мечтают / Når dyrene drømmer / When Animals Dream (Йонас Александер Арнбю / Jonas Alexander Arnby) [2014, Дания, Ужасы, драма, DVDRip] DVO (datynet & Галина Васюкова)

 
Автор Сообщение

TorrentFilm ®

Пол:

Стаж: 2 года

Сообщений: 7741



Награды: Нет

Торрент-статистика

Создавать темы 22-Дек-2014 02:01

[Цитировать]

Когда животные видят сны / Когда звери мечтают / Når dyrene drømmer / When Animals Dream
Страна: Дания
Жанр: Ужасы, драма
Год выпуска: 2014
Продолжительность: 01:21:05
Перевод: Любительский (двухголосый закадровый) datynet & Галина Васюкова по тексту Станислава Белькова
Cубтитры: нет
Режиссер: Йонас Александер Арнбю / Jonas Alexander Arnby
В ролях: Сония Суль, Ларс Миккельсен, Соня Рихтер, Якоб Офтебро, Мадс Риисом, Густав Дюэкьер Гисе, Стиг Хоффмайер, Бенджамин Бё Расмуссен, Тина Гюллинг Мортенсен, Эсбен Дальгор
Описание: Мари — скромная девушка, выросшая в отдаленной рыбацкой деревушке. Она живет вместе с отцом и матерью, которая прикована к инвалидной коляске. Когда на груди Мари появляется странная сыпь, она обращается к доктору, но беспокойство усиливается, когда по всему телу начинают расти волосы. Претерпевая все больше изменений, Мари вскоре начинает понимать, что семья хранит необъяснимые секреты, а нынешнее состояние матери напрямую связано с метаморфозой ее тела.
Доп. информация от Скандинавского калейдоскопа: Дебютная работа для молодого датчанина Йонаса Александера Арнбю. На международном фестивале в Афинах он взял приз в номинации "Лучший режиссер". Сония Суль, сыгравшая главную роль, также дебютировала в этом фильме.

Качество видео: DVDRip
Формат видео: AVI
Видео: 720x304 (2.37:1), 25 fps, XviD build 50 ~1973 kbps avg, 0.36 bit/pixel
Аудио: 48 kHz, AC3 Dolby Digital, 3/2 (L,C,R,l,r) + LFE ch, ~448 kbps

MediaInfo

General
Complete name : E:\Films\New\Kogda zveri mechtaiut.2014.avi
Format : AVI
Format/Info : Audio Video Interleave
File size : 1.38 GiB
Duration : 1h 21mn
Overall bit rate : 2 432 Kbps
Writing application : VirtualDubMod 1.5.10.2 (build 2542/release)
Writing library : VirtualDubMod build 2542/release
Video
ID : 0
Format : MPEG-4 Visual
Format profile : Advanced Simple@L5
Format settings, BVOP : 2
Format settings, QPel : No
Format settings, GMC : No warppoints
Format settings, Matrix : Default (H.263)
Codec ID : XVID
Codec ID/Hint : XviD
Duration : 1h 21mn
Bit rate : 1 974 Kbps
Width : 720 pixels
Height : 304 pixels
Display aspect ratio : 2.35:1
Frame rate : 25.000 fps
Color space : YUV
Chroma subsampling : 4:2:0
Bit depth : 8 bits
Scan type : Progressive
Compression mode : Lossy
Bits/(Pixel*Frame) : 0.361
Stream size : 1.12 GiB (81%)
Writing library : XviD 1.2.1 (UTC 2008-12-04)
Audio
ID : 1
Format : AC-3
Format/Info : Audio Coding 3
Mode extension : CM (complete main)
Format settings, Endianness : Big
Codec ID : 2000
Duration : 1h 21mn
Bit rate mode : Constant
Bit rate : 448 Kbps
Channel(s) : 6 channels
Channel positions : Front: L C R, Side: L R, LFE
Sampling rate : 48.0 KHz
Bit depth : 16 bits
Compression mode : Lossy
Stream size : 260 MiB (18%)
Alignment : Split accross interleaves
Interleave, duration : 40 ms (1.00 video frame)
Interleave, preload duration : 500 ms

Скриншоты

Когда животные видят сны / Når dyrene drømmer
[Профиль] [ЛС]
Кто просматривает тему:

Форум Тема Автор Размер
Chanson (Шансон) VA - Когда мы вместе навсегда - 2015, MP3, 256 kbps Magnat 707 MB
Наши клипы Александр Маршал и Юлия Савичева - «Сюзанна» / VA - «Когда поют мужчины» (Эфир от 08.03.2014) [2014, Pop, HDTV 1080i] sergej644 223 MB
Сhanson БумеR - Когда уходят друзья [Полная версия] (2015) MP3 достали все 347 MB
Разная литература Галина Кизима | Сад и огород. Что? Когда? Как? 10000 самых полезных советов (2015) [FB2] достали все 1 MB
Фильмы 2006-2008 года День, когда Земля остановилась / The Day the Earth Stood Still (Скотт Дерриксон / Scott Derrickson) [2008, США, фантастика, триллер, драма, HDTVRip] [Open Matte] Dub TorrentFilm 1.46 GB
Зарубежное кино (CAMRip, Telesynch, SCR) Джек Ричер 2: Никогда не возвращайся / Jack Reacher: Never Go Back (2016) CAMRip | D достали все 1.46 GB
Трейлеры Джек Ричер 2: Никогда не возвращайся / Jack Reacher: Never Go Back (2016) HD 1080 | Трейлер достали все 118 MB
Мультфильмы СССР Зимушка зима или Когда зажигаются ёлки (1948-1982) DVDRip BOSS 3.25 GB
Показать сообщения:    

Текущее время: Сегодня 18:41

Часовой пояс: GMT



Вы не можете начинать темы
Вы не можете отвечать на сообщения
Вы не можете редактировать свои сообщения
Вы не можете удалять свои сообщения
Вы не можете голосовать в опросах
Вы не можете прикреплять файлы к сообщениям
Вы не можете скачивать файлы