Ковбойши и ангелы 2 / Лето Дакоты / Cowgirls N\' Angels 2 Dakota\'s summer (Тимоти Армстронг / Timothy Armstrong) [2014, США, Семейный, мелодрама, DVDRip] Sub Rus + Original Eng

 
Автор Сообщение

Создавать темы 14-Июл-2014 09:08

Ковбойши и ангелы 2 / Лето Дакоты / Cowgirls N' Angels 2 Dakota's summer
Страна: США
Жанр: Семейный, мелодрама
Год выпуска: 2014
Продолжительность: 01:30:31
Перевод: Субтитры (М. Васильев aka lakdhf)
Cубтитры: русские
Оригинальная аудиодорожка: английский
Режиссер: Тимоти Армстронг / Timothy Armstrong
Премьера: 5 апреля 2014 (Далласский Международный Кинофестиваль)
В ролях: Хейли Рэмм, Брайан Дечарт, Глинн Тёрмен, Эмили Бетт Рикардс, Уолт Робертс
Описание: Дакота Роуз – представительница славного рода ковбоев. Правда, пока у нее хорошо получается только падать с лошади. А ее ровесницы уже показывают сложнейшие акробатические фигуры! И тут выясняется, что родители все эти годы скрывали от Дакоты ужасную правду: они взяли ее из детдома!
Теперь у Дакоты две большие задачи: собрать по кусочкам свою жизнь и найти настоящих родителей.
Доп. информация: Светлое, радостное, жизнеутверждающее кино, прославляющее семейные ценности, политкорректность и ковбойскую романтику.
Фильм является частью популярной в США франшизы, включающей несколько телефильмов, книг и комиксов, рассказывающих о жизни девушек - наездниц.
Спорт, которым занимаются герои фильма – разновидность конной акробатики, известная в России под названием «джигитовка». Некоторые специалисты считают, что ее американский вариант правильнее называть «вестерн-джигитовка» или «ковбойская джигитовка».
Рекомендуется к просмотру всем, кто любит красивое кино про красивую жизнь!
Фильм подготовлен релиз-группой

Сэмпл: http://yadi.sk/d/ep5x-raFREjTD
Качество видео: DVDRip
Формат видео: AVI
Видео: 1094 Kbps, 720x384 (1.85:1), 23 976 fps, MPEG 4 XviD
Аудио: 128 Kbps, 48.0 KHz, 2ch, MP 3
Формат субтитров: softsub (SRT)

MediaInfo

General
Complete name : C:\Users\Владелец\Downloads\Cowgirls.N.Angels.2.Dakotas.Summer.2014.LIMITED.BRRip.XviD-AQOS\dakota.avi
Format : AVI
Format/Info : Audio Video Interleave
File size : 795 MiB
Duration : 1h 30mn
Overall bit rate : 1 228 Kbps
Video
ID : 0
Format : MPEG-4 Visual
Format profile : Advanced Simple@L5
Format settings, BVOP : 2
Format settings, QPel : No
Format settings, GMC : No warppoints
Format settings, Matrix : Default (H.263)
Codec ID : XVID
Codec ID/Hint : XviD
Duration : 1h 30mn
Bit rate : 1 094 Kbps
Width : 720 pixels
Height : 384 pixels
Display aspect ratio : 1.85:1
Frame rate : 23.976 fps
Color space : YUV
Chroma subsampling : 4:2:0
Bit depth : 8 bits
Scan type : Progressive
Compression mode : Lossy
Bits/(Pixel*Frame) : 0.165
Stream size : 708 MiB (89%)
Writing library : XviD 1.2.1 (UTC 2008-12-04)
Audio
ID : 1
Format : MPEG Audio
Format version : Version 1
Format profile : Layer 3
Mode : Joint stereo
Mode extension : MS Stereo
Codec ID : 55
Codec ID/Hint : MP3
Duration : 1h 30mn
Bit rate mode : Constant
Bit rate : 128 Kbps
Channel(s) : 2 channels
Sampling rate : 48.0 KHz
Compression mode : Lossy
Stream size : 82.9 MiB (10%)
Alignment : Aligned on interleaves
Interleave, duration : 167 ms (4.00 video frames)
Interleave, preload duration : 216 ms
Title : iguana-cgaa2.720p - [0] English
Writing library : LAME3.99r
Encoding settings : -m j -V 4 -q 2 -lowpass 17 -b 128

Скриншот c названием фильма

Скриншоты








Субтитры

1
00:02:02,372 --> 00:02:04,670
И вот Дакота Роуз
2
00:02:04,750 --> 00:02:08,095
И она начинает свое
показательное выступление
3
00:02:09,296 --> 00:02:12,391
Она показывает
соскакивание с коня
4
00:02:12,466 --> 00:02:14,685
Поприветствуем ее
5
00:02:16,678 --> 00:02:20,228
Падение!
Надеюсь, она в порядке
6
00:02:22,392 --> 00:02:24,315
Поддержим ее!
Ваши аплодисменты
7
00:02:24,394 --> 00:02:26,396
Меня зовут Дакота Роуз
8
00:02:26,480 --> 00:02:30,405
Я внучка Остина Роуза -
легенды родео,
9
00:02:30,484 --> 00:02:33,158
но толку от этого мало
10
00:02:33,236 --> 00:02:36,615
Видимо, я не в него пошла
11
00:02:36,698 --> 00:02:39,042
Да, у нашей команды
сложные времена,
12
00:02:39,117 --> 00:02:41,336
а от меня прока мало
13
00:02:41,411 --> 00:02:42,913
Я не попала в стремя
14
00:02:42,996 --> 00:02:44,839
Я же говорила
ослабить стремена
15
00:02:44,956 --> 00:02:49,553
- Почему не слушаешь меня?
- Ты моя сестра, а не тренер
16
00:02:49,628 --> 00:02:53,508
Дамы и господа,
приветствуем "Одинокую Звезду"
17
00:02:53,590 --> 00:02:55,888
Дон Мортон и Джулия Рено
18
00:03:00,263 --> 00:03:03,187
Вот это я понимаю, талант от Бога
19
00:03:03,266 --> 00:03:05,735
Мисс Мэдисон,
следите за словами
20
00:03:06,436 --> 00:03:08,859
Еще как слежу
21
00:03:34,631 --> 00:03:39,853
- Ни одной ошибки
- Да, неплохо
 
Кто просматривает тему:

Форум Тема Автор Размер
Фильмы (HD Rips | 720p, 1080p) Ковбои / Les cowboys (2015) BDRip 720p | L ODESSA 4.24 GB
Фильмы 2015 года Ковбои / Les cowboys (2015) HDRip | L ODESSA 1.37 GB
Фильмы 2015 года Ковбои против динозавров / Cowboys vs Dinosaurs (2015) DVDRip | L1 достали все 748 MB
Фильмы 2015 года Ковбои против динозавров / Cowboys vs Dinosaurs (2015) HDRip | L1 достали все 1.46 GB
Отечественные мультфильмы Ковбойские игры (Олег Белоусов) [1985, Рисованный мультфильм, TVRip] TorrentFilm 160 MB
Фильмы 2014 года Ковбойши и ангелы 2 / Лето Дакоты / Cowgirls N\' Angels 2 Dakota\'s Summer (Тимоти Армстронг / Timothy Armstrong) [2014, США, Семейный, мелодрама, HDRip] VO (datynet) + Original Eng bot 1.37 GB
Фильмы 2009 года Мальчишки из Скавабёле / Последний приют ковбоя / Skavabölen Pojat / Last Cowboy Standing (Заид Берг / Zaida Bergroth) [2009, Финляндия, Германия, Мелодрама, DVDRip] VO + Sub Русские (yasmus... TorrentFilm 1.55 GB
Фильмы (HD DVD, Blu-ray и BDRemux) Харлей Дэвидсон и ковбой Мальборо / Harley Davidson and the Marlboro Man (1991) BDRemux 1080p | Р, Р2, А Russian Mafia 22.43 GB
Показать сообщения:    

Текущее время: Сегодня 04:49

Часовой пояс: GMT



Вы не можете начинать темы
Вы не можете отвечать на сообщения
Вы не можете редактировать свои сообщения
Вы не можете удалять свои сообщения
Вы не можете голосовать в опросах
Вы не можете прикреплять файлы к сообщениям
Вы не можете скачивать файлы