Ковбойские игры (Олег Белоусов) [1985, Рисованный мультфильм, TVRip]

 
Автор Сообщение

TorrentFilm ®

Пол:

Стаж: 2 года

Сообщений: 7741



Награды: Нет

Торрент-статистика

Создавать темы 03-Янв-2016 00:05

[Цитировать]

Ковбойские игры
Страна: СССР
Жанр: Рисованный мультфильм
Продолжительность: 00:09:40
Год выпуска: 1985
Русские субтитры: нет
Режиссёр: Олег Белоусов
Описание: Мультипликационный фильм для взрослых на тему американского вестерна.
Доп. информация: „Беларусьфильм“
Музыка:С.Чупров
Монтаж:С.Аксенова
Директор:Л.Зубенко
Раздача группы:
Качество: TVRip
Формат: AVI
Видео: 720x544 (1.32:1), 25 fps, XviD Final 1.0 (build 34) ~2165 kbps avg, 0.22 bit/pixel
Аудио: 48 kHz, MPEG Layer 3, 2 ch, ~128.00 kbps avg
Субтитры: нет

Подробные технические данные

Format : AVIFormat/Info : Audio Video InterleaveFile size : 160 MiBDuration : 9mn 55sOverall bit rate : 2 248 Kbps
VideoID : 0Format : MPEG-4 VisualFormat profile : Advanced Simple@L5Format settings, BVOP : 1Format settings, QPel : NoFormat settings, GMC : No warppointsFormat settings, Matrix : CustomCodec ID : XVIDCodec ID/Hint : XviDDuration : 9mn 40sBit rate : 2 169 KbpsWidth : 720 pixelsHeight : 544 pixelsDisplay aspect ratio : 4:3Frame rate : 25.000 fpsColor space : YUVChroma subsampling : 4:2:0Bit depth : 8 bitsScan type : ProgressiveCompression mode : LossyBits/(Pixel*Frame) : 0.222Stream size : 150 MiB (94%)Writing library : XviD 1.0.0 (UTC 2004-05-09)
AudioID : 1Format : MPEG AudioFormat version : Version 1Format profile : Layer 3Mode : Joint stereoMode extension : MS StereoCodec ID : 55Codec ID/Hint : MP3Duration : 9mn 55sSource duration : 9mn 40sBit rate mode : ConstantBit rate : 128 KbpsChannel(s) : 2 channelsSampling rate : 48.0 KHzCompression mode : LossyStream size : 8.86 MiB (6%)Alignment : Aligned on interleavesInterleave, duration : 40 ms (1.00 video frame)

Скриншоты

[Профиль] [ЛС]
Кто просматривает тему:

Форум Тема Автор Размер
Фильмы (HD Rips | 720p, 1080p) Ковбои / Les cowboys (2015) BDRip 720p | L ODESSA 4.24 GB
Фильмы 2015 года Ковбои / Les cowboys (2015) HDRip | L ODESSA 1.37 GB
Фильмы 2015 года Ковбои против динозавров / Cowboys vs Dinosaurs (2015) DVDRip | L1 достали все 748 MB
Фильмы 2015 года Ковбои против динозавров / Cowboys vs Dinosaurs (2015) HDRip | L1 достали все 1.46 GB
Фильмы 2014 года Ковбойши и ангелы 2 / Лето Дакоты / Cowgirls N\' Angels 2 Dakota\'s summer (Тимоти Армстронг / Timothy Armstrong) [2014, США, Семейный, мелодрама, DVDRip] Sub Rus + Original Eng bot 795 MB
Фильмы 2014 года Ковбойши и ангелы 2 / Лето Дакоты / Cowgirls N\' Angels 2 Dakota\'s Summer (Тимоти Армстронг / Timothy Armstrong) [2014, США, Семейный, мелодрама, HDRip] VO (datynet) + Original Eng bot 1.37 GB
Фильмы 2009 года Мальчишки из Скавабёле / Последний приют ковбоя / Skavabölen Pojat / Last Cowboy Standing (Заид Берг / Zaida Bergroth) [2009, Финляндия, Германия, Мелодрама, DVDRip] VO + Sub Русские (yasmus... TorrentFilm 1.55 GB
Фильмы (HD DVD, Blu-ray и BDRemux) Харлей Дэвидсон и ковбой Мальборо / Harley Davidson and the Marlboro Man (1991) BDRemux 1080p | Р, Р2, А Russian Mafia 22.43 GB
Показать сообщения:    

Текущее время: Сегодня 08:02

Часовой пояс: GMT



Вы не можете начинать темы
Вы не можете отвечать на сообщения
Вы не можете редактировать свои сообщения
Вы не можете удалять свои сообщения
Вы не можете голосовать в опросах
Вы не можете прикреплять файлы к сообщениям
Вы не можете скачивать файлы