Коварный / Infidus (2015) DVDRip [VO]

 
Автор Сообщение

достали все ®

Пол:

Стаж: 1 год 8 месяцев

Сообщений: 6630



Награды: 12 (Подробнее)

Mega Releaser 3 (Количество: 1) Mega Releaser 1 (Количество: 1) Mega Seeder 4 (Количество: 1)
Торрент-статистика

Создавать темы 14-Май-2015 03:13

[Цитировать]

-Коварный / Infidus (2015) DVDRip- Производство: Италия / Necrostorm
Жанр: Драма, Криминал
Режиссер: Джулио Де Санти / Giulio De Santi
Продюсер: Tiziana Machella, Джулио Де Санти
Актеры: Бонини Мино, Массимо Карателли, Маурицио Дзаффино, Стефания Бонини, Андреа Ди Спирито, Уолтер Монтано
Описание:
В предместьях Рима жизнь идет своим отдельным ходом, в течении которого переплетаются две души: Массимо страдает от потери жены, жестоко убитой членами снафф-мафии, и пытается отомстить виновникам этой трагедии, а Барабба, вышедший из тюрьмы и узнавший о том, что его брат состоит в этой организации, понимает, что изменить все это можно только насилием и кровопролитием…
Доп. информация: Фильм был снят с участием бывших преступников и обездоленных людей с римских улиц.

Рейтинги MPAA: Рейтинг R - Детям до 17 лет обязательно присутствие родителей
Дата мировой премьеры: 20 марта 2015
Продолжительность: 01:15:58
Качество видео: DVDRip
Перевод: Одноголосый закадровый, любительский
Озвучка / Автор перевода: Мегапыхарь
Субтитры: Отсутствуют
Видеокодек: Xvid
Битрейт видео: ~898 kbps avg
Размер кадра: 720x404
Аудиокодек: AC3 2.0
Битрейт аудио: 192 Kbps

Mediainfo:

General
Complete name                            : D:\Фильмы\Infidus(2015)MEGAPYHAR.avi
Format                                   : AVI
Format/Info                              : Audio Video Interleave
File size                                : 598 MiB
Duration                                 : 1h 15mn
Overall bit rate                         : 1 100 Kbps
Writing application                      : VirtualDubMod 1.5.10.2 (build 2540/release)
Writing library                          : VirtualDubMod build 2540/release
Video
ID                                       : 0
Format                                   : xvid
Codec ID                                 : xvid
Duration                                 : 1h 15mn
Bit rate                                 : 899 Kbps
Width                                    : 720 pixels
Height                                   : 404 pixels
Display aspect ratio                     : 16:9
Frame rate                               : 25.000 fps
Bits/(Pixel*Frame)                       : 0.124
Stream size                              : 488 MiB (82%)
Audio
ID                                       : 1
Format                                   : AC-3
Format/Info                              : Audio Coding 3
Mode extension                           : CM (complete main)
Format settings, Endianness              : Big
Codec ID                                 : 2000
Duration                                 : 1h 15mn
Bit rate mode                            : Constant
Bit rate                                 : 192 Kbps
Channel(s)                               : 2 channels
Channel positions                        : Front: L R
Sampling rate                            : 48.0 KHz
Bit depth                                : 16 bits
Compression mode                         : Lossy
Stream size                              : 104 MiB (17%)
Alignment                                : Split accross interleaves
Interleave, duration                     : 40 ms (1.00 video frame)
Interleave, preload duration             : 500 ms
Скриншоты:
[Профиль] [ЛС]
Показать сообщения:    

Текущее время: Сегодня 14:07

Часовой пояс: GMT



Вы не можете начинать темы
Вы не можете отвечать на сообщения
Вы не можете редактировать свои сообщения
Вы не можете удалять свои сообщения
Вы не можете голосовать в опросах
Вы не можете прикреплять файлы к сообщениям
Вы не можете скачивать файлы