Коварные горничные / Devious Maids [S01] (2013) WEB-DLRip | Baibako

 
Автор Сообщение

Russian Mafia ®

Пол:

Стаж: 1 год 8 месяцев

Сообщений: 4257



Награды: 10 (Подробнее)

Mega Seeder 1 (Количество: 1) Top Releaser 5 (Количество: 1) Top Releaser 3 (Количество: 1)
Торрент-статистика

Создавать темы 01-Сен-2015 08:07

[Цитировать]

-Коварные горничные
Devious Maids
- Год выпуска: 2013
Страна: США
Жанр: драма, комедия
Продолжительность: ~ 43 мин. / серия
Перевод: профессиональный многоголосый закадровый (Baibako)
Субтитры: Нет--Режиссеры: Роб Бэйли--В ролях: Грант Шоу, Мелинда Пейдж Хэмилтон, Сьюзэн Луччи, Ана Ортиз, Дрю Ван Экер, Дания Рамирез, Эди Ганем, Джуди Рейс,Брианна Браун, Мариана Клавено и др.--Описание: В центре сюжета находятся четыре амбициозные латиноамериканские горничные, работающие в домах богатых и знаменитых жителей Беверли-Хиллз, подруга которых однажды была найдена жестоко убитой, забрав их общую шокирующую тайну с собой в могилу. После этого им приходится хранить секрет, чего бы это ни стоило, между тем работая на своих испорченных и красивых хозяев. Этот новый проект от создателя сериала «Отчаянных домохозяек» Марка Черри. Это адаптация мексиканского сериала, но режиссёр уверяет, что сюжет будет закручен не хуже, чем в «Отчаянных...».-
Перевод: Lub_a и Янина Галицкая
Озвучка: Ольга Мотрич, Татьяна Оболевич, Юлия Котурбаш и Алекс Викке
Обложка: tvblog
Монтаж: Павел Дежин-«Семпл»-Качество: WEB-DLRip
Формат: AVI
Видео кодек: XviD
Аудио кодек: MP3
Видео: MPEG4, XviD, 720x400 (16/9), 23.976 fps, 1 501 Kbps (0.217 bit/pixel)
Аудио Rus: MP3, 48.0 KHz, 2 ch, 192 Kbps, CBR
Аудио Eng: MP3, 48.0 KHz, 2 ch, 192 Kbps, CBR-

Скриншоты



-

MediaInfo

General
Complete name : I:ЗАКАЧКИКоварные горничные Сезон 1 (Baibako)Devious.Maids.s01e01.WEB-DLRip.XviD.Rus-Eng.BaibaKo.tv.avi
Format : AVI
Format/Info : Audio Video Interleave
File size : 592 MiB
Duration : 43mn 33s
Overall bit rate : 1 899 Kbps
Writing application : VirtualDubMod 1.5.10.2 (build 2542/release)
Writing library : VirtualDubMod build 2542/release
Video
ID : 0
Format : MPEG-4 Visual
Format profile : Advanced Simple@L5
Format settings, BVOP : 2
Format settings, QPel : No
Format settings, GMC : No warppoints
Format settings, Matrix : Default (H.263)
Codec ID : XVID
Codec ID/Hint : XviD
Duration : 43mn 33s
Bit rate : 1 501 Kbps
Width : 720 pixels
Height : 400 pixels
Display aspect ratio : 16:9
Frame rate : 23.976 fps
Color space : YUV
Chroma subsampling : 4:2:0
Bit depth : 8 bits
Scan type : Progressive
Compression mode : Lossy
Bits/(Pixel*Frame) : 0.217
Stream size : 468 MiB (79%)
Writing library : XviD 1.2.1 (UTC 2008-12-04)
Audio #1
ID : 1
Format : MPEG Audio
Format version : Version 1
Format profile : Layer 3
Mode : Joint stereo
Codec ID : 55
Codec ID/Hint : MP3
Duration : 43mn 33s
Bit rate mode : Constant
Bit rate : 192 Kbps
Channel(s) : 2 channels
Sampling rate : 48.0 KHz
Compression mode : Lossy
Stream size : 59.8 MiB (10%)
Alignment : Aligned on interleaves
Interleave, duration : 42 ms (1.00 video frame)
Interleave, preload duration : 504 ms
Writing library : LAME3.99r
Encoding settings : -m j -V 4 -q 3 -lowpass 18.6 -b 192
Audio #2
ID : 2
Format : MPEG Audio
Format version : Version 1
Format profile : Layer 3
Mode : Joint stereo
Codec ID : 55
Codec ID/Hint : MP3
Duration : 43mn 33s
Bit rate mode : Constant
Bit rate : 192 Kbps
Channel(s) : 2 channels
Sampling rate : 48.0 KHz
Compression mode : Lossy
Stream size : 59.8 MiB (10%)
Alignment : Aligned on interleaves
Interleave, duration : 42 ms (1.00 video frame)
Interleave, preload duration : 504 ms
-
[Профиль] [ЛС]
Показать сообщения:    

Текущее время: Сегодня 19:34

Часовой пояс: GMT



Вы не можете начинать темы
Вы не можете отвечать на сообщения
Вы не можете редактировать свои сообщения
Вы не можете удалять свои сообщения
Вы не можете голосовать в опросах
Вы не можете прикреплять файлы к сообщениям
Вы не можете скачивать файлы