Кобра / Cobra (1986) BDRip 1080p by msltel | D, P, A

 
Автор Сообщение

Russian Mafia ®

Пол:

Стаж: 1 год 8 месяцев

Сообщений: 4257



Награды: 10 (Подробнее)

Top Releaser 5 (Количество: 1) Mega Seeder 5 (Количество: 1) Mega Seeder 2 (Количество: 1)
Торрент-статистика

Создавать темы 11-Апр-2016 13:54

[Цитировать]

Название: Кобра
Оригинальное название: Cobra
Год выпуска: 1986
Жанр: Боевик, триллер
Выпущено: США, Warner Bros, Cannon Group, Golan-Globus Productions
Режиссер: Джордж Пан Косматос
В ролях: Сильвестр Сталлоне, Бриджитт Нильсен, Рени Сантони, Эндрю Робинсон, Брайан Томпсон, Джон Херцфелд, Ли Гарлингтон, Арт ЛаФлёр, Марко Родригес, Росс Ст. Филлип, Вэл Эйвери, Дэвид Раш, Джон Хок, Ник Анджотти, Нина Аксельрод, Джо Бонни, Брэд Бови, Кевин Бреслин, Роджер Аарон Браун, Джон Кехилл, Малик Картер, Луиз Каире Кларк
О фильме: Он — «Кобра» — штурмовой отряд полиции из одного человека; ему достаётся кровавая работёнка, за которую никто не хочет (или не осмеливается) взяться. Он выходит на след убийцы, за которым целая армия преступников-маньяков, стремящихся уничтожить свидетельницу их кровавой вакханалии. Но, к счастью, она попадает под защиту «Кобры»...
Качество: BDRip 1080p
Размер: 15.49 ГБ
Продолжительность: 01:27:03
Видео: MPEG-4 AVC, 15.5 Мбит/с, 1920x1080
Аудио 1: русский, 48 kHz, AC3, 6 ch, 640 kbps avg, [Дублированный, Bly-ray CEE]
Аудио 2: русский, 48 kHz, AC3, 2 ch, 192 kbps avg, [Профессиональный многоголосый, PTP]
Аудио 3: русский, 48 kHz, DTS, 6 ch, 1509 kbps avg, [Авторский, Андрей Гаврилов]
Аудио 4: русский, 48 kHz, DTS, 6 ch, 1509 kbps avg, [Авторский, Василий Горчаков]
Аудио 5: русский, 48 kHz, DTS, 6 ch, 1509 kbps avg, [Авторский, Дмитирй Пучков (Гоблин)]
Внешние файлы
Аудио: русский, 48 kHz, AC3, 6 ch, 384 kbps avg, [Дублированный, Мост видео]
Аудио: русский, 48 kHz, AC3, 2 ch, 192 kbps avg, [Дублированный, Варус видео]
Аудио: русский, 48 kHz, AC3, 2 ch, 192 kbps avg, [Профессиональный многоголосый, HTB]
Аудио: русский, 48 kHz, AC3, 6 ch, 448 kbps avg, [Авторский, Андрей Гаврилов]
Аудио: русский, 48 kHz, AC3, 6 ch, 448 kbps avg, [Авторский, Василий Горчаков]
Аудио: русский, 48 kHz, AC3, 6 ch, 448 kbps avg, [Авторский, Дмитирй Пучков (Гоблин)]
Аудио: русский, 48 kHz, AC3, 2 ch, 224 kbps avg, [Авторский, Леонид Володарский]
Аудио: русский, 48 kHz, AC3, 2 ch, 192 kbps avg, [Авторский, Юрий Толбин]
Аудио: английский, 48 kHz, DTS, 6 ch, 1509 kbps avg, [Оригинал]
Аудио: английский, 48 kHz, AC3, 2 ch, 192 kbps avg, [комментарий]
Субтитры: русские
Субтитры: русские, Гоблин
Субтитры: английские
Исходник: igorella87 (Кинозал)
Сравнение с исходником

MediaInfo

Общее
Полное имя : D:VideoCobra.1986.BDRip.1080pCobra.1986.AVO.rus.А.Гаврилов.ac3
Формат : AC-3
Формат/Информация : Audio Coding 3
Размер файла : 279 Мбайт
Продолжительность : 1 ч. 27 м.
Режим общего битрейта : Постоянный
Общий поток : 448 Кбит/сек
Аудио
Формат : AC-3
Формат/Информация : Audio Coding 3
Расширение режима : CM (complete main)
Параметр Endianness формата : Big
Продолжительность : 1 ч. 27 м.
Вид битрейта : Постоянный
Битрейт : 448 Кбит/сек
Каналы : 6 каналов
Расположение каналов : Front: L C R, Side: L R, LFE
Частота : 48,0 КГц
Битовая глубина : 16 бит
Метод сжатия : С потерями
Размер потока : 279 Мбайт (100%)
Общее
Полное имя : D:VideoCobra.1986.BDRip.1080pCobra.1986.AVO.rus.В.Горчаков.ac3
Формат : AC-3
Формат/Информация : Audio Coding 3
Размер файла : 279 Мбайт
Продолжительность : 1 ч. 27 м.
Режим общего битрейта : Постоянный
Общий поток : 448 Кбит/сек
Аудио
Формат : AC-3
Формат/Информация : Audio Coding 3
Расширение режима : CM (complete main)
Параметр Endianness формата : Big
Продолжительность : 1 ч. 27 м.
Вид битрейта : Постоянный
Битрейт : 448 Кбит/сек
Каналы : 6 каналов
Расположение каналов : Front: L C R, Side: L R, LFE
Частота : 48,0 КГц
Битовая глубина : 16 бит
Метод сжатия : С потерями
Размер потока : 279 Мбайт (100%)
Общее
Полное имя : D:VideoCobra.1986.BDRip.1080pCobra.1986.AVO.rus.Гоблин.ac3
Формат : AC-3
Формат/Информация : Audio Coding 3
Размер файла : 279 Мбайт
Продолжительность : 1 ч. 27 м.
Режим общего битрейта : Постоянный
Общий поток : 448 Кбит/сек
Аудио
Формат : AC-3
Формат/Информация : Audio Coding 3
Расширение режима : CM (complete main)
Параметр Endianness формата : Big
Продолжительность : 1 ч. 27 м.
Вид битрейта : Постоянный
Битрейт : 448 Кбит/сек
Каналы : 6 каналов
Расположение каналов : Front: L C R, Side: L R, LFE
Частота : 48,0 КГц
Битовая глубина : 16 бит
Метод сжатия : С потерями
Размер потока : 279 Мбайт (100%)
Общее
Полное имя : D:VideoCobra.1986.BDRip.1080pCobra.1986.AVO.rus.Л.Володарский.ac3
Формат : AC-3
Формат/Информация : Audio Coding 3
Размер файла : 139 Мбайт
Продолжительность : 1 ч. 27 м.
Режим общего битрейта : Постоянный
Общий поток : 224 Кбит/сек
Аудио
Формат : AC-3
Формат/Информация : Audio Coding 3
Расширение режима : CM (complete main)
Параметр Endianness формата : Big
Продолжительность : 1 ч. 27 м.
Вид битрейта : Постоянный
Битрейт : 224 Кбит/сек
Каналы : 2 канала
Расположение каналов : Front: L R
Частота : 48,0 КГц
Битовая глубина : 16 бит
Метод сжатия : С потерями
Размер потока : 139 Мбайт (100%)
Общее
Полное имя : D:VideoCobra.1986.BDRip.1080pCobra.1986.AVO.rus.Ю.Толбин.ac3
Формат : AC-3
Формат/Информация : Audio Coding 3
Размер файла : 120 Мбайт
Продолжительность : 1 ч. 27 м.
Режим общего битрейта : Постоянный
Общий поток : 192 Кбит/сек
Аудио
Формат : AC-3
Формат/Информация : Audio Coding 3
Расширение режима : CM (complete main)
Параметр Endianness формата : Big
Продолжительность : 1 ч. 27 м.
Вид битрейта : Постоянный
Битрейт : 192 Кбит/сек
Каналы : 2 канала
Расположение каналов : Front: L R
Частота : 48,0 КГц
Битовая глубина : 16 бит
Метод сжатия : С потерями
Размер потока : 120 Мбайт (100%)
Общее
Уникальный идентификатор : 202358992504068563729961380161824869432 (0x983CECA01A18F85BBF5E9745A951CC38)
Полное имя : D:VideoCobra.1986.BDRip.1080pCobra.1986.BDRip.1080p.mkv
Формат : Matroska
Версия формата : Version 4 / Version 2
Размер файла : 12,9 Гбайт
Продолжительность : 1 ч. 27 м.
Общий поток : 21,2 Мбит/сек
Дата кодирования : UTC 2014-09-08 06:52:21
Программа кодирования : mkvmerge v6.9.1 ('Blue Panther') 64bit built on Apr 18 2014 18:23:38
Библиотека кодирования : libebml v1.3.0 + libmatroska v1.4.1
Видео
Идентификатор : 1
Формат : AVC
Формат/Информация : Advanced Video Codec
Профиль формата : High@L4.1
Параметр CABAC формата : Да
Параметр ReFrames формата : 4 кадра
Идентификатор кодека : V_MPEG4/ISO/AVC
Продолжительность : 1 ч. 27 м.
Битрейт : 15,5 Мбит/сек
Ширина : 1920 пикселей
Высота : 1080 пикселей
Соотношение сторон : 16:9
Режим частоты кадров : Постоянный
Частота кадров : 23,976 кадра/сек
Цветовое пространство : YUV
Субдискретизация насыщенности : 4:2:0
Битовая глубина : 8 бит
Тип развёртки : Прогрессивная
Бит/(Пиксели*Кадры) : 0.311
Размер потока : 9,40 Гбайт (73%)
Заголовок : BDRip -- STarankov
Библиотека кодирования : x264 core 142 r2431 ac76440
Настройки программы : cabac=1 / ref=4 / deblock=1:-1:-1 / analyse=0x3:0x113 / me=umh / subme=10 / psy=1 / psy_rd=1.00:0.15 / mixed_ref=1 / me_range=32 / chroma_me=1 / trellis=2 / 8x8dct=1 / cqm=0 / deadzone=21,11 / fast_pskip=0 / chroma_qp_offset=-3 / threads=6 / lookahead_threads=1 / sliced_threads=0 / nr=0 / decimate=1 / interlaced=0 / bluray_compat=0 / constrained_intra=0 / bframes=8 / b_pyramid=2 / b_adapt=2 / b_bias=0 / direct=1 / weightb=1 / open_gop=0 / weightp=2 / keyint=230 / keyint_min=23 / scenecut=40 / intra_refresh=0 / rc_lookahead=40 / rc=crf / mbtree=0 / crf=19.5 / qcomp=0.60 / qpmin=0 / qpmax=69 / qpstep=4 / vbv_maxrate=40000 / vbv_bufsize=50000 / crf_max=0.0 / nal_hrd=none / filler=0 / ip_ratio=1.40 / pb_ratio=1.30 / aq=1:1.00
Язык : English
Default : Да
Forced : Нет
Аудио #1
Идентификатор : 2
Формат : AC-3
Формат/Информация : Audio Coding 3
Расширение режима : CM (complete main)
Параметр Endianness формата : Big
Идентификатор кодека : A_AC3
Продолжительность : 1 ч. 27 м.
Вид битрейта : Постоянный
Битрейт : 640 Кбит/сек
Каналы : 6 каналов
Расположение каналов : Front: L C R, Side: L R, LFE
Частота : 48,0 КГц
Битовая глубина : 16 бит
Метод сжатия : С потерями
Размер потока : 399 Мбайт (3%)
Заголовок : DUB (Bly-ray CEE)
Язык : Russian
Default : Да
Forced : Нет
Аудио #2
Идентификатор : 3
Формат : AC-3
Формат/Информация : Audio Coding 3
Расширение режима : CM (complete main)
Параметр Endianness формата : Big
Идентификатор кодека : A_AC3
Продолжительность : 1 ч. 27 м.
Вид битрейта : Постоянный
Битрейт : 192 Кбит/сек
Каналы : 2 канала
Расположение каналов : Front: L R
Частота : 48,0 КГц
Битовая глубина : 16 бит
Метод сжатия : С потерями
Размер потока : 120 Мбайт (1%)
Заголовок : MVO (PTP)
Язык : Russian
Default : Нет
Forced : Нет
Аудио #3
Идентификатор : 4
Формат : DTS
Формат/Информация : Digital Theater Systems
Режим : 16
Параметр Endianness формата : Big
Идентификатор кодека : A_DTS
Продолжительность : 1 ч. 27 м.
Вид битрейта : Постоянный
Битрейт : 1509 Кбит/сек
Каналы : 6 каналов
Расположение каналов : Front: L C R, Side: L R, LFE
Частота : 48,0 КГц
Битовая глубина : 24 бит
Метод сжатия : С потерями
Размер потока : 940 Мбайт (7%)
Заголовок : AVO (Андрей Гаврилов)
Язык : Russian
Default : Нет
Forced : Нет
Аудио #4
Идентификатор : 5
Формат : DTS
Формат/Информация : Digital Theater Systems
Режим : 16
Параметр Endianness формата : Big
Идентификатор кодека : A_DTS
Продолжительность : 1 ч. 27 м.
Вид битрейта : Постоянный
Битрейт : 1509 Кбит/сек
Каналы : 6 каналов
Расположение каналов : Front: L C R, Side: L R, LFE
Частота : 48,0 КГц
Битовая глубина : 24 бит
Метод сжатия : С потерями
Размер потока : 940 Мбайт (7%)
Заголовок : AVO (Василий Горчаков)
Язык : Russian
Default : Нет
Forced : Нет
Аудио #5
Идентификатор : 6
Формат : DTS
Формат/Информация : Digital Theater Systems
Режим : 16
Параметр Endianness формата : Big
Идентификатор кодека : A_DTS
Продолжительность : 1 ч. 27 м.
Вид битрейта : Постоянный
Битрейт : 1509 Кбит/сек
Каналы : 6 каналов
Расположение каналов : Front: L C R, Side: L R, LFE
Частота : 48,0 КГц
Битовая глубина : 24 бит
Метод сжатия : С потерями
Размер потока : 940 Мбайт (7%)
Заголовок : AVO (Дмитирй Пучков (Гоблин))
Язык : Russian
Default : Нет
Forced : Нет
Общее
Полное имя : D:VideoCobra.1986.BDRip.1080pCobra.1986.Commentary.eng.ac3
Формат : AC-3
Формат/Информация : Audio Coding 3
Размер файла : 120 Мбайт
Продолжительность : 1 ч. 27 м.
Режим общего битрейта : Постоянный
Общий поток : 192 Кбит/сек
Аудио
Формат : AC-3
Формат/Информация : Audio Coding 3
Профиль формата : Dolby Digital
Расширение режима : CM (complete main)
Параметр Endianness формата : Big
Продолжительность : 1 ч. 27 м.
Вид битрейта : Постоянный
Битрейт : 192 Кбит/сек
Каналы : 2 канала
Расположение каналов : Front: L R
Частота : 48,0 КГц
Битовая глубина : 16 бит
Метод сжатия : С потерями
Размер потока : 120 Мбайт (100%)
Общее
Полное имя : D:VideoCobra.1986.BDRip.1080pCobra.1986.DUB.rus.Варус видео.ac3
Формат : AC-3
Формат/Информация : Audio Coding 3
Размер файла : 120 Мбайт
Продолжительность : 1 ч. 27 м.
Режим общего битрейта : Постоянный
Общий поток : 192 Кбит/сек
Аудио
Формат : AC-3
Формат/Информация : Audio Coding 3
Расширение режима : CM (complete main)
Параметр Endianness формата : Big
Продолжительность : 1 ч. 27 м.
Вид битрейта : Постоянный
Битрейт : 192 Кбит/сек
Каналы : 2 канала
Расположение каналов : Front: L R
Частота : 48,0 КГц
Битовая глубина : 16 бит
Метод сжатия : С потерями
Размер потока : 120 Мбайт (100%)
Общее
Полное имя : D:VideoCobra.1986.BDRip.1080pCobra.1986.DUB.rus.Мост видео.ac3
Формат : AC-3
Формат/Информация : Audio Coding 3
Размер файла : 239 Мбайт
Продолжительность : 1 ч. 27 м.
Режим общего битрейта : Постоянный
Общий поток : 384 Кбит/сек
Аудио
Формат : AC-3
Формат/Информация : Audio Coding 3
Расширение режима : CM (complete main)
Параметр Endianness формата : Big
Продолжительность : 1 ч. 27 м.
Вид битрейта : Постоянный
Битрейт : 384 Кбит/сек
Каналы : 6 каналов
Расположение каналов : Front: L C R, Side: L R, LFE
Частота : 48,0 КГц
Битовая глубина : 16 бит
Метод сжатия : С потерями
Размер потока : 239 Мбайт (100%)
Общее
Полное имя : D:VideoCobra.1986.BDRip.1080pCobra.1986.eng.srt
Формат : SubRip
Размер файла : 38,6 Кбайт
Текст
Формат : SubRip
Метод сжатия : Без потерь
Общее
Полное имя : D:VideoCobra.1986.BDRip.1080pCobra.1986.MVO.rus.HTB.ac3
Формат : AC-3
Формат/Информация : Audio Coding 3
Размер файла : 120 Мбайт
Продолжительность : 1 ч. 27 м.
Режим общего битрейта : Постоянный
Общий поток : 192 Кбит/сек
Аудио
Формат : AC-3
Формат/Информация : Audio Coding 3
Расширение режима : CM (complete main)
Параметр Endianness формата : Big
Продолжительность : 1 ч. 27 м.
Вид битрейта : Постоянный
Битрейт : 192 Кбит/сек
Каналы : 2 канала
Расположение каналов : Front: L R
Частота : 48,0 КГц
Битовая глубина : 16 бит
Метод сжатия : С потерями
Размер потока : 120 Мбайт (100%)
Общее
Полное имя : D:VideoCobra.1986.BDRip.1080pCobra.1986.Original.eng.dts
Формат : DTS
Формат/Информация : Digital Theater Systems
Размер файла : 940 Мбайт
Продолжительность : 1 ч. 27 м.
Режим общего битрейта : Постоянный
Общий поток : 1509 Кбит/сек
Аудио
Формат : DTS
Формат/Информация : Digital Theater Systems
Режим : 16
Параметр Endianness формата : Big
Продолжительность : 1 ч. 27 м.
Вид битрейта : Постоянный
Битрейт : 1509 Кбит/сек
Каналы : 6 каналов
Расположение каналов : Front: L C R, Side: L R, LFE
Частота : 48,0 КГц
Битовая глубина : 24 бит
Метод сжатия : С потерями
Размер потока : 940 Мбайт (100%)
Общее
Полное имя : D:VideoCobra.1986.BDRip.1080pCobra.1986.rus.srt
Формат : SubRip
Размер файла : 37,5 Кбайт
Текст
Формат : SubRip
Метод сжатия : Без потерь
Общее
Полное имя : D:VideoCobra.1986.BDRip.1080pCobra.1986.rus.Гоблин.srt
Формат : SubRip
Размер файла : 43,7 Кбайт
Текст
Формат : SubRip
Метод сжатия : Без потерь

Скриншоты

[Профиль] [ЛС]
Кто просматривает тему:

Показать сообщения:    

Текущее время: Сегодня 08:01

Часовой пояс: GMT



Вы не можете начинать темы
Вы не можете отвечать на сообщения
Вы не можете редактировать свои сообщения
Вы не можете удалять свои сообщения
Вы не можете голосовать в опросах
Вы не можете прикреплять файлы к сообщениям
Вы не можете скачивать файлы