КОАПП. Комиссия особо активной помощи природе ... (18 серий) (М. Муат, Н. Лернер, А. Соловьев, М. Новогрудская и др.) [1984-1990 г., рисованный мультфильм, DVB]

 
Автор Сообщение

TorrentFilm ®

Пол:

Стаж: 2 года

Сообщений: 7741



Награды: Нет

Торрент-статистика

Создавать темы 03-Янв-2016 00:04

[Цитировать]

КОАПП. Комиссия особо активной помощи природе / Комитет Охраны Авторских Прав Природы
Жанр: рисованный мультфильм
Год выпуска: 1984-1990 г
Продолжительность: 02:59:00
Режиссёр: М. Муат, Н. Лернер, А. Соловьев, М. Новогрудская и др.
Описание: КОАПП (Комитет по охране авторских прав природы, Комиссия особо активной помощи природе) — сериал из 18 советских кукольных мультфильмов творческого объединения «Экран» по пьесе М. Константиновского.
Главные герои сериала - обезьяна, леопард и кит - они спасают попавших в беду животных и в шутливой форме рассказывают о серьезных явлениях природы ...
1. «КОАПП. Чёрный заяц» (1984 г.), реж. М. Муат
2. «КОАПП. Что услышала медуза» (1984 г.), реж. М. Муат
3. «КОАПП. Разными глазами» (1985 г.), реж. М.Муат
4. «КОАПП. Сонное царство» (1985 г.), реж. Н. Лернер
5. «КОАПП. Когда я был маленьким» (1986 г.), реж. А. Соловьев
6. «КОАПП. Банный день» (1986 г.), реж. А. Соловьев
7. «КОАПП. Самая скорая помощь» (1986 г.), реж. М. Муат
8. «КОАПП. Тайна зелёного острова» (1986 г.), реж. А. Зябликова
9. «КОАПП. Всюду жизнь» (1987 г.), реж. М. Муат
10. «КОАПП. Дом для барсука» (1987 г.), реж. А. Соловьев
11. «КОАПП. Перепись населения» (1987 г.), реж. М. Муат
12. «КОАПП. Пробег» (1987 г.), реж. И. Воробьева
13. «КОАПП. AB OVO — это значит от яйца» (1988 г.), реж. Л. Сурикова, М. Муат
14. «КОАПП. Кошмар на Амазонке» (1988 г.), реж. М. Новогрудская
15. «КОАПП. Ограбление вернисажа» (1988 г.), реж. М. Новогрудская
16. «КОАПП. SOS КОАППу!» (1989 г.), реж. А. Соловьев
17. «КОАПП. Симбиоз» (1990 г.), реж. А. Соловьев
18. «КОАПП. Таинственный КА…» (1990 г.), реж. А. Соловьев
Доп. информация:

Релиз группы:
Трансляция спутникового канала: "Карусель"
Качество видео: DVB
Формат видео: MPEG-PS
Видео: MPEG2 Video, 720x576, 25 fps, 3400 kbps
Аудио: MPEG Audio, 2 сh, 48 kHz, 192 kbps

MediaInfo

D:\КОАПП\01c. КОАПП. Чёрный заяц (1984)_DVB by SLuMeP.mpg
General
Complete name : D:\КОАПП\01c. КОАПП. Чёрный заяц (1984)_DVB by SLuMeP.mpg
Format : MPEG-PS
File size : 233 MiB
Duration : 9mn 21s
Overall bit rate mode : Variable
Overall bit rate : 3 472 Kbps
Writing library : (c) 1998-2010 Womble Multimedia, Inc. / MPEG Video Wizard DVD 5.0.0.114 (01/2010) / Apr 20 2010
Video #224
ID : 224 (0xE0)
Format : MPEG Video
Format version : Version 2
Format profile : Main@Main
Format settings, BVOP : Yes
Format settings, Matrix : Custom
Format settings, GOP : M=3, N=12
Duration : 9mn 21s
Bit rate mode : Variable
Bit rate : 3 211 Kbps
Maximum bit rate : 5 000 Kbps
Width : 720 pixels
Height : 576 pixels
Display aspect ratio : 4:3
Frame rate : 25.000 fps
Standard : PAL
Color space : YUV
Chroma subsampling : 4:2:0
Bit depth : 8 bits
Scan type : Interlaced
Scan order : Top Field First
Compression mode : Lossy
Bits/(Pixel*Frame) : 0.310
Stream size : 215 MiB (92%)
Writing library : (c) 1998-2010 Womble Multimedia, Inc. / MPEG Video Wizard DVD 5.0.0.114 (01/2010) / Apr 20 2010
Audio #192
ID : 192 (0xC0)
Format : MPEG Audio
Format version : Version 1
Format profile : Layer 2
Duration : 9mn 21s
Bit rate mode : Constant
Bit rate : 192 Kbps
Channel(s) : 2 channels
Sampling rate : 48.0 KHz
Compression mode : Lossy
Delay relative to video : -40ms
Stream size : 12.9 MiB (6%)
Menu
[Профиль] [ЛС]
Кто просматривает тему:

Показать сообщения:    

Текущее время: Сегодня 03:12

Часовой пояс: GMT



Вы не можете начинать темы
Вы не можете отвечать на сообщения
Вы не можете редактировать свои сообщения
Вы не можете удалять свои сообщения
Вы не можете голосовать в опросах
Вы не можете прикреплять файлы к сообщениям
Вы не можете скачивать файлы