(Rock,Punk Rock)КняZz - Магия Калиостро (2014) [FLAC (image+cue),Lossless]

 
Автор Сообщение

sergej644 ®

Пол:

Стаж: 4 года 11 месяцев

Сообщений: 6043

Откуда: Soviet Union



Награды: Нет

Торрент-статистика

Создавать темы 15-Окт-2014 14:18

[Цитировать]

-КняZz - Магия Калиостро (2014)-Год: 2014
Жанр: Rock/Punk
Страна: Россия
Продолжительность: 00:50:14
Издатель: United Music Group
Номер по каталогу: UMGCD14-309
Кодек: FLAC (image+.cue)
Битрейт: Lossless
Треклист:
01. Сэр Уильям (пролог) (1:21)
02. Чернокнижник (2:58)
03. Дом Манекенов (3:03)
04. Граф Калиостро (3:45)
05. Мушкетеры (2:47)
06. Вирус (3:46)
07. Бедный Йорик (3:32)
08. Бастард (4:43)
09. Видел Вия - вот те Крест! (4:06)
10. Темные (3:47)
11. Зазеркалье (3:49)
12. Пир в Замке Врага (3:59)
13. Русский Дух (3:59)
14. Боль (4:39)

Отчёт ЕАС:

Exact Audio Copy V1.0 beta 3 from 29. August 2011
EAC extraction logfile from 1. October 2014, 16:32
КняZz / Магия Калиостро
Used drive  : HL-DT-STDVD-RAM GH22NP20   Adapter: 1  ID: 0
Read mode               : Secure
Utilize accurate stream : Yes
Defeat audio cache      : Yes
Make use of C2 pointers : No
Read offset correction                      : 102
Overread into Lead-In and Lead-Out          : No
Fill up missing offset samples with silence : Yes
Delete leading and trailing silent blocks   : No
Null samples used in CRC calculations       : Yes
Used interface                              : Native Win32 interface for Win NT & 2000
Used output format              : User Defined Encoder
Selected bitrate                : 128 kBit/s
Quality                         : High
Add ID3 tag                     : No
Command line compressor         : C:\Program Files (x86)\Exact Audio Copy\Flac\flac.exe
Additional command line options : -V -8 -T "Date=%year%" -T "Genre=%genre%" %source%
TOC of the extracted CD
     Track |   Start  |  Length  | Start sector | End sector
    ---------------------------------------------------------
        1  |  0:00.00 |  1:20.39 |         0    |     6038
        2  |  1:20.39 |  2:57.39 |      6039    |    19352
        3  |  4:18.03 |  3:03.12 |     19353    |    33089
        4  |  7:21.15 |  3:45.26 |     33090    |    49990
        5  | 11:06.41 |  2:47.36 |     49991    |    62551
        6  | 13:54.02 |  3:45.47 |     62552    |    79473
        7  | 17:39.49 |  3:31.66 |     79474    |    95364
        8  | 21:11.40 |  4:43.29 |     95365    |   116618
        9  | 25:54.69 |  4:06.07 |    116619    |   135075
       10  | 30:01.01 |  3:47.35 |    135076    |   152135
       11  | 33:48.36 |  3:48.40 |    152136    |   169275
       12  | 37:37.01 |  3:58.39 |    169276    |   187164
       13  | 41:35.40 |  3:59.05 |    187165    |   205094
       14  | 45:34.45 |  4:39.30 |    205095    |   226049
Range status and errors
Selected range
     Filename D:\КняZz - Магия Калиостро.wav
     Peak level 97.6 %
     Extraction speed 2.7 X
     Range quality 100.0 %
     Test CRC 910A4474
     Copy CRC 910A4474
     Copy OK
No errors occurred
AccurateRip summary
Track  1  not present in database
Track  2  not present in database
Track  3  not present in database
Track  4  not present in database
Track  5  not present in database
Track  6  not present in database
Track  7  not present in database
Track  8  not present in database
Track  9  not present in database
Track 10  not present in database
Track 11  not present in database
Track 12  not present in database
Track 13  not present in database
Track 14  not present in database
None of the tracks are present in the AccurateRip database
End of status report
==== Log checksum 88204015565030F1E49B502B04034AF22B0CD5FAACB56900FA0376AA6B1F48BD ====

Отчёт auCDtect Task manager:

-----------------------
DON'T MODIFY THIS FILE
-----------------------
PERFORMER: auCDtect Task Manager, ver. 1.5.1RC4 build 1.5.1.5
Copyright (c) 2008-2010 y-soft. All rights reserved
http://y-soft.org
ANALYZER: auCDtect: CD records authenticity detector, version 0.8.2
Copyright (c) 2004 Oleg Berngardt. All rights reserved.
Copyright (c) 2004 Alexander Djourik. All rights reserved.
FILE: КняZz - Магия Калиостро.flac
  Size: 380667788 Hash: FA2117E7BBEF7DF0ECEE3BAD5C11E923 Accuracy: -m0
  Conclusion: CDDA 100%
  Signature: 2987C7AB2D21AE1CA8B07A4A01E5079DF1E11A29
[Профиль] [ЛС]

Создавать темы 13-Авг-2015 10:27 (спустя 9 месяцев 28 дней)

Топик был перенесен из форума Отечественная в форум Rock
sergej644
 
Кто просматривает тему:

Показать сообщения:    

Текущее время: Сегодня 20:32

Часовой пояс: GMT



Вы не можете начинать темы
Вы не можете отвечать на сообщения
Вы не можете редактировать свои сообщения
Вы не можете удалять свои сообщения
Вы не можете голосовать в опросах
Вы не можете прикреплять файлы к сообщениям
Вы не можете скачивать файлы