Книга мастеров (Вадим Соколовский, Анна Старобинец) [2009, Россия, фэнтези, семейный, Blu-Ray disc 1080p]

 
Автор Сообщение

TorrentFilm ®

Пол:

Стаж: 2 года

Сообщений: 7741



Награды: Нет

Торрент-статистика

Создавать темы 01-Янв-2016 00:05

[Цитировать]

Книга мастеров
«Первый российский фильм Disney»
- Год выпуска: 2009
Жанр: фэнтези, семейный
Продолжительность: 01:41:12
Перевод: Не требуется
Субтитры: русские, украинские, казахские
Русскоязычное меню : есть
Режиссер: Вадим Соколовский, Анна Старобинец
Сценарий: Арчил Ахвледиани
Оператор: Арчил Ахвледиани
Композитор: Юрий Потеенко
В ролях:
Мария Андреева
Максим Локтионов
Лия Ахеджакова
Леонид Куравлев
Артур Смольянинов
Ирина Апексимова
Ольга Аросева
Валентин Гафт
Ольга Ергина
Николай Ефремов
Александр Леньков
Михаил Ефремов
Гоша Куценко
Екатерина Вилкова
Описание: Миру грозит опасность. Скоро исполнится древнее пророчество и заточенная в башне Каменная Княжна вырвется на свободу, чтобы с помощью своих злых чар обрести власть над миром. Волею случая, судьбы людей оказываются в руках Ивана, которому предстоит пройти через множество испытаний. В его силах наделить Княжну волшебной властью и сделать владычицей земною, но он может и одолеть её, чтобы спасти свою возлюбленную Катю. На пути к цели Ивана подстерегает множество опасностей и приключений, его ждут встречи с героями русских сказок — Бабой Ягой, Русалкой, Кощеем Бессмертным, и многими другими.
Релиз группы:
Качество: Blu-Ray
Формат: BDMV (M2TS)
Видео кодек: H.264
Аудио кодек: DTS-HD / AC3
Видео: 21969 kbps / 1080p / 23,976 fps / 16:9 / High Profile 4.1
Аудио 1: DTS-HD Master Audio 7.1 / 48 kHz / 2358 kbps / 16-bit (DTS Core: 5.1 / 48 kHz / 1509 kbps / 16-bit)
Аудио 2: Dolby Digital Audio 5.1 / 48 kHz / 448 kbps

Субтитры отдельно, говорим спасибо человеку под ником kisluk !

http://sendfile.su/324879

BDInfo

Disc Title:
Disc Size: 24 813 194 530 bytes
Protection: AACS
BD-Java: No
BDInfo: 0.5.3
Notes:
BDINFO HOME:
Cinema Squid
http://www.cinemasquid.com/blu-ray/tools/bdinfo
INCLUDES FORUMS REPORT FOR:
AVS Forum Blu-ray Audio and Video Specifications Thread
http://www.avsforum.com/avs-vb/showthread.php?t=1155731
********************
PLAYLIST: 00004.MPLS
********************
Total   Video
Title                                                           Codec   Length  Movie Size      Disc Size       Bitrate Bitrate Main Audio Track                          Secondary Audio Track
-----                                                           ------  ------- --------------  --------------  ------- ------- ------------------                        ---------------------
00004.MPLS                                                      AVC     1:41:12 19 929 741 312  24 813 194 530  26,26   21,97
DTS-HD Master 7.1 2358Kbps (48kHz/16-bit) DD AC3 5.1 448Kbps
DISC INFO:
Disc Title:
Disc Size:      24 813 194 530 bytes
Protection:     AACS
BD-Java:        No
BDInfo:         0.5.3
PLAYLIST REPORT:
Name:                   00004.MPLS
Length:                 1:41:12 (h:m:s)
Size:                   19 929 741 312 bytes
Total Bitrate:          26,26 Mbps
VIDEO:
Codec                   Bitrate             Description
-----                   -------             -----------
MPEG-4 AVC Video        21969 kbps          1080p / 23,976 fps / 16:9 / High Profile 4.1
AUDIO:
Codec                           Language        Bitrate         Description
-----                           --------        -------         -----------
DTS-HD Master Audio             Russian         2358 kbps       7.1 / 48 kHz / 2358 kbps / 16-bit (DTS Core: 5.1 / 48 kHz / 1509 kbps / 16-bit)
Dolby Digital Audio             Russian         448 kbps        5.1 / 48 kHz / 448 kbps
SUBTITLES:
Codec                           Language        Bitrate         Description
-----                           --------        -------         -----------
Presentation Graphics           Kazakh          23,906 kbps
Presentation Graphics           Russian         23,573 kbps
Presentation Graphics           Ukrainian       22,347 kbps
FILES:
Name            Time In         Length          Size            Total Bitrate
----            -------         ------          ----            -------------
00005.M2TS      0:00:00.000     1:41:12.566     19 929 741 312  26 255
CHAPTERS:
Number          Time In         Length          Avg Video Rate  Max 1-Sec Rate  Max 1-Sec Time  Max 5-Sec Rate  Max 5-Sec Time  Max 10Sec Rate  Max 10Sec Time  Avg Frame Size  Max Frame Size  Max Frame Time
------          -------         ------          --------------  --------------  --------------  --------------  --------------  --------------  --------------  --------------  --------------  --------------
1               0:00:00.000     0:05:27.160     17 580 kbps     37 698 kbps     00:01:04.105    33 276 kbps     00:01:04.105    31 189 kbps     00:01:03.855    91 642 bytes    461 552 bytes   00:00:57.057
2               0:05:27.160     0:04:42.615     29 199 kbps     45 246 kbps     00:05:46.304    40 316 kbps     00:05:46.012    36 295 kbps     00:05:41.799    152 233 bytes   557 885 bytes   00:09:16.639
3               0:10:09.775     0:04:34.315     24 054 kbps     44 311 kbps     00:10:24.790    40 192 kbps     00:10:23.706    36 908 kbps     00:10:38.471    125 404 bytes   530 508 bytes   00:12:24.368
4               0:14:44.091     0:09:21.269     22 849 kbps     41 840 kbps     00:18:46.333    35 426 kbps     00:18:44.665    33 134 kbps     00:16:44.712    119 126 bytes   483 809 bytes   00:17:38.974
5               0:24:05.360     0:04:34.857     25 717 kbps     40 393 kbps     00:26:27.210    33 547 kbps     00:27:44.037    31 759 kbps     00:24:06.820    134 077 bytes   534 125 bytes   00:27:47.832
6               0:28:40.218     0:08:08.654     16 771 kbps     43 721 kbps     00:33:36.305    35 654 kbps     00:30:44.551    34 241 kbps     00:33:35.346    87 438 bytes    432 410 bytes   00:33:37.849
7               0:36:48.873     0:08:29.509     22 412 kbps     41 692 kbps     00:42:57.199    35 994 kbps     00:42:53.237    34 831 kbps     00:42:14.907    116 844 bytes   484 791 bytes   00:41:54.178
8               0:45:18.382     0:03:30.877     15 345 kbps     37 525 kbps     00:47:44.611    27 709 kbps     00:46:17.941    25 393 kbps     00:46:13.979    80 003 bytes    335 213 bytes   00:46:15.189
9               0:48:49.259     0:05:19.610     22 292 kbps     41 605 kbps     00:52:26.810    36 178 kbps     00:52:09.167    34 315 kbps     00:53:15.692    116 220 bytes   663 213 bytes   00:52:38.196
10              0:54:08.870     0:05:51.768     17 613 kbps     37 411 kbps     00:55:13.393    32 995 kbps     00:55:09.389    28 405 kbps     00:55:07.387    91 827 bytes    702 515 bytes   00:55:03.925
11              1:00:00.638     0:03:42.472     22 208 kbps     42 547 kbps     01:03:08.993    37 650 kbps     01:03:01.944    36 132 kbps     01:03:19.587    115 783 bytes   494 857 bytes   01:02:17.567
12              1:03:43.110     0:03:27.123     22 533 kbps     36 957 kbps     01:05:43.189    32 683 kbps     01:05:14.952    31 500 kbps     01:05:15.036    117 475 bytes   510 130 bytes   01:05:58.871
13              1:07:10.234     0:06:27.887     23 454 kbps     45 692 kbps     01:13:07.466    40 196 kbps     01:12:33.599    38 975 kbps     01:12:31.513    122 280 bytes   523 252 bytes   01:11:13.519
14              1:13:38.122     0:06:29.263     27 222 kbps     47 939 kbps     01:15:50.337    43 062 kbps     01:15:48.001    40 804 kbps     01:15:44.498    141 925 bytes   555 248 bytes   01:15:49.628
15              1:20:07.385     0:04:18.049     32 126 kbps     46 223 kbps     01:24:04.122    40 314 kbps     01:24:00.618    38 629 kbps     01:23:17.534    167 489 bytes   499 037 bytes   01:22:33.823
16              1:24:25.435     0:07:19.313     17 818 kbps     42 499 kbps     01:27:16.272    35 597 kbps     01:27:15.897    34 838 kbps     01:27:14.896    92 895 bytes    470 452 bytes   01:30:51.195
17              1:31:44.749     0:06:18.628     27 520 kbps     44 558 kbps     01:34:12.396    38 693 kbps     01:34:12.396    35 731 kbps     01:36:28.741    143 478 bytes   703 708 bytes   01:38:02.626
18              1:38:03.377     0:03:09.188     4 772 kbps      9 058 kbps      01:39:47.690    7 807 kbps      01:39:46.188    7 344 kbps      01:39:43.185    24 882 bytes    194 733 bytes   01:39:48.482
STREAM DIAGNOSTICS:
File            PID             Type            Codec           Language                Seconds                 Bitrate                 Bytes           Packets
----            ---             ----            -----           --------                --------------          --------------          -------------   -----
00005.M2TS      4113 (0x1011)   0x1B            AVC                                     6072,441                21 969                  16 676 024 888  90 715 696
00005.M2TS      4352 (0x1100)   0x86            DTS-HD MA       rus (Russian)           6072,441                2 358                   1 789 604 500   10 673 637
00005.M2TS      4353 (0x1101)   0x81            AC3             rus (Russian)           6072,441                448                     340 064 256     1 897 680
00005.M2TS      4608 (0x1200)   0x90            PGS             rus (Russian)           6072,441                24                      17 893 774      104 669
00005.M2TS      4609 (0x1201)   0x90            PGS             ukr (Ukrainian)         6072,441                22                      16 963 074      99 612
00005.M2TS      4610 (0x1202)   0x90            PGS             kaz (Kazakh)            6072,441                24                      18 146 314      105 977
QUICK SUMMARY:
Disc Title:
Disc Size: 24 813 194 530 bytes
Protection: AACS
BD-Java: No
Playlist: 00004.MPLS
Size: 19 929 741 312 bytes
Length: 1:41:12
Total Bitrate: 26,26 Mbps
Video: MPEG-4 AVC Video / 21969 kbps / 1080p / 23,976 fps / 16:9 / High Profile 4.1
Audio: Russian / DTS-HD Master Audio / 7.1 / 48 kHz / 2358 kbps / 16-bit (DTS Core: 5.1 / 48 kHz / 1509 kbps / 16-bit)
Audio: Russian / Dolby Digital Audio / 5.1 / 48 kHz / 448 kbps
Subtitle: Kazakh / 23,906 kbps
Subtitle: Russian / 23,573 kbps
Subtitle: Ukrainian / 22,347 kbps
********************
PLAYLIST: 00006.MPLS
********************
Код:
Total   Video
Title                                                           Codec   Length  Movie Size      Disc Size       Bitrate Bitrate Main Audio Track                          Secondary Audio Track
-----                                                           ------  ------- --------------  --------------  ------- ------- ------------------                        ---------------------
00006.MPLS                                                      AVC     0:24:42 3 149 948 928   24 813 194 530  17,00   16,00   DD AC3 2.0 192Kbps
Код:
DISC INFO:
Disc Title:
Disc Size:      24 813 194 530 bytes
Protection:     AACS
BD-Java:        No
BDInfo:         0.5.3
PLAYLIST REPORT:
Name:                   00006.MPLS
Length:                 0:24:42 (h:m:s)
Size:                   3 149 948 928 bytes
Total Bitrate:          17,00 Mbps
VIDEO:
Codec                   Bitrate             Description
-----                   -------             -----------
MPEG-4 AVC Video        15995 kbps          1080p / 23,976 fps / 16:9 / High Profile 4.1
AUDIO:
Codec                           Language        Bitrate         Description
-----                           --------        -------         -----------
Dolby Digital Audio             Russian         192 kbps        2.0 / 48 kHz / 192 kbps
FILES:
Name            Time In         Length          Size            Total Bitrate
----            -------         ------          ----            -------------
00007.M2TS      0:00:00.000     0:24:41.813     3 149 942 784   17 006
00015.M2TS      0:24:41.813     0:00:00.208     6 144           236
CHAPTERS:
Number          Time In         Length          Avg Video Rate  Max 1-Sec Rate  Max 1-Sec Time  Max 5-Sec Rate  Max 5-Sec Time  Max 10Sec Rate  Max 10Sec Time  Avg Frame Size  Max Frame Size  Max Frame Time
------          -------         ------          --------------  --------------  --------------  --------------  --------------  --------------  --------------  --------------  --------------  --------------
1               0:00:00.000     0:24:42.022     15 995 kbps     40 760 kbps     00:02:33.111    37 615 kbps     00:15:51.492    31 290 kbps     00:15:46.528    83 391 bytes    545 652 bytes   00:13:11.874
STREAM DIAGNOSTICS:
File            PID             Type            Codec           Language                Seconds                 Bitrate                 Bytes           Packets
----            ---             ----            -----           --------                --------------          --------------          -------------   -----
00007.M2TS      4113 (0x1011)   0x1B            AVC                                     1481,689                15 999                  2 963 128 773   16 124 755
00007.M2TS      4352 (0x1100)   0x81            AC3             rus (Russian)           1481,689                192                     35 563 776      231 535
00015.M2TS      4113 (0x1011)   0x1B            AVC                                     0,125                   235                     3 679           22
QUICK SUMMARY:
Disc Title:
Disc Size: 24 813 194 530 bytes
Protection: AACS
BD-Java: No
Playlist: 00006.MPLS
Size: 3 149 948 928 bytes
Length: 0:24:42
Total Bitrate: 17,00 Mbps
Video: MPEG-4 AVC Video / 15995 kbps / 1080p / 23,976 fps / 16:9 / High Profile 4.1
Audio: Russian / Dolby Digital Audio / 2.0 / 48 kHz / 192 kbps
********************
PLAYLIST: 00011.MPLS
********************
Код:
Total   Video
Title                                                           Codec   Length  Movie Size      Disc Size       Bitrate Bitrate Main Audio Track                          Secondary Audio Track
-----                                                           ------  ------- --------------  --------------  ------- ------- ------------------                        ---------------------
00011.MPLS                                                      AVC     0:03:15 414 013 440     24 813 194 530  16,97   15,96   DD AC3 2.0 192Kbps
Код:
DISC INFO:
Disc Title:
Disc Size:      24 813 194 530 bytes
Protection:     AACS
BD-Java:        No
BDInfo:         0.5.3
PLAYLIST REPORT:
Name:                   00011.MPLS
Length:                 0:03:15 (h:m:s)
Size:                   414 013 440 bytes
Total Bitrate:          16,97 Mbps
VIDEO:
Codec                   Bitrate             Description
-----                   -------             -----------
MPEG-4 AVC Video        15961 kbps          1080p / 23,976 fps / 16:9 / High Profile 4.1
AUDIO:
Codec                           Language        Bitrate         Description
-----                           --------        -------         -----------
Dolby Digital Audio             Russian         192 kbps        2.0 / 48 kHz / 192 kbps
FILES:
Name            Time In         Length          Size            Total Bitrate
----            -------         ------          ----            -------------
00012.M2TS      0:00:00.000     0:03:14.986     414 007 296     16 986
00015.M2TS      0:03:14.986     0:00:00.208     6 144           236
CHAPTERS:
Number          Time In         Length          Avg Video Rate  Max 1-Sec Rate  Max 1-Sec Time  Max 5-Sec Rate  Max 5-Sec Time  Max 10Sec Rate  Max 10Sec Time  Avg Frame Size  Max Frame Size  Max Frame Time
------          -------         ------          --------------  --------------  --------------  --------------  --------------  --------------  --------------  --------------  --------------  --------------
1               0:00:00.000     0:03:15.194     15 961 kbps     23 382 kbps     00:02:38.074    19 365 kbps     00:01:27.378    18 418 kbps     00:01:52.403    83 215 bytes    211 208 bytes   00:00:08.842
STREAM DIAGNOSTICS:
File            PID             Type            Codec           Language                Seconds                 Bitrate                 Bytes           Packets
----            ---             ----            -----           --------                --------------          --------------          -------------   -----
00012.M2TS      4113 (0x1011)   0x1B            AVC                                     194,820                 15 992                  389 444 594     2 119 260
00012.M2TS      4352 (0x1100)   0x81            AC3             rus (Russian)           194,820                 192                     4 679 424       30 465
00015.M2TS      4113 (0x1011)   0x1B            AVC                                     0,125                   235                     3 679           22
QUICK SUMMARY:
Disc Title:
Disc Size: 24 813 194 530 bytes
Protection: AACS
BD-Java: No
Playlist: 00011.MPLS
Size: 414 013 440 bytes
Length: 0:03:15
Total Bitrate: 16,97 Mbps
Video: MPEG-4 AVC Video / 15961 kbps / 1080p / 23,976 fps / 16:9 / High Profile 4.1
Audio: Russian / Dolby Digital Audio / 2.0 / 48 kHz / 192 kbps
********************
PLAYLIST: 00005.MPLS
********************
Код:
Total   Video
Title                                                           Codec   Length  Movie Size      Disc Size       Bitrate Bitrate Main Audio Track                          Secondary Audio Track
-----                                                           ------  ------- --------------  --------------  ------- ------- ------------------                        ---------------------
00005.MPLS                                                      AVC     0:01:41 215 543 808     24 813 194 530  16,94   15,93   DD AC3 2.0 192Kbps
Код:
DISC INFO:
Disc Title:
Disc Size:      24 813 194 530 bytes
Protection:     AACS
BD-Java:        No
BDInfo:         0.5.3
PLAYLIST REPORT:
Name:                   00005.MPLS
Length:                 0:01:41 (h:m:s)
Size:                   215 543 808 bytes
Total Bitrate:          16,94 Mbps
VIDEO:
Codec                   Bitrate             Description
-----                   -------             -----------
MPEG-4 AVC Video        15932 kbps          1080p / 23,976 fps / 16:9 / High Profile 4.1
AUDIO:
Codec                           Language        Bitrate         Description
-----                           --------        -------         -----------
Dolby Digital Audio             Russian         192 kbps        2.0 / 48 kHz / 192 kbps
FILES:
Name            Time In         Length          Size            Total Bitrate
----            -------         ------          ----            -------------
00006.M2TS      0:00:00.000     0:01:41.601     215 537 664     16 971
00015.M2TS      0:01:41.601     0:00:00.208     6 144           236
CHAPTERS:
Number          Time In         Length          Avg Video Rate  Max 1-Sec Rate  Max 1-Sec Time  Max 5-Sec Rate  Max 5-Sec Time  Max 10Sec Rate  Max 10Sec Time  Avg Frame Size  Max Frame Size  Max Frame Time
------          -------         ------          --------------  --------------  --------------  --------------  --------------  --------------  --------------  --------------  --------------  --------------
1               0:00:00.000     0:01:41.810     15 932 kbps     22 230 kbps     00:00:01.835    20 943 kbps     00:00:00.709    19 479 kbps     00:00:01.334    83 060 bytes    330 895 bytes   00:01:40.183
STREAM DIAGNOSTICS:
File            PID             Type            Codec           Language                Seconds                 Bitrate                 Bytes           Packets
----            ---             ----            -----           --------                --------------          --------------          -------------   -----
00006.M2TS      4113 (0x1011)   0x1B            AVC                                     101,435                 15 990                  202 746 066     1 103 293
00006.M2TS      4352 (0x1100)   0x81            AC3             rus (Russian)           101,435                 192                     2 438 400       15 875
00015.M2TS      4113 (0x1011)   0x1B            AVC                                     0,125                   235                     3 679           22
QUICK SUMMARY:
Disc Title:
Disc Size: 24 813 194 530 bytes
Protection: AACS
BD-Java: No
Playlist: 00005.MPLS
Size: 215 543 808 bytes
Length: 0:01:41
Total Bitrate: 16,94 Mbps
Video: MPEG-4 AVC Video / 15932 kbps / 1080p / 23,976 fps / 16:9 / High Profile 4.1
Audio: Russian / Dolby Digital Audio / 2.0 / 48 kHz / 192 kbps
********************
PLAYLIST: 00009.MPLS
********************
Код:
Total   Video
Title                                                           Codec   Length  Movie Size      Disc Size       Bitrate Bitrate Main Audio Track                          Secondary Audio Track
-----                                                           ------  ------- --------------  --------------  ------- ------- ------------------                        ---------------------
00009.MPLS                                                      AVC     0:01:39 209 891 328     24 813 194 530  16,93   15,92   DD AC3 2.0 192Kbps
Код:
DISC INFO:
Disc Title:
Disc Size:      24 813 194 530 bytes
Protection:     AACS
BD-Java:        No
BDInfo:         0.5.3
PLAYLIST REPORT:
Name:                   00009.MPLS
Length:                 0:01:39 (h:m:s)
Size:                   209 891 328 bytes
Total Bitrate:          16,93 Mbps
VIDEO:
Codec                   Bitrate             Description
-----                   -------             -----------
MPEG-4 AVC Video        15924 kbps          1080p / 23,976 fps / 16:9 / High Profile 4.1
AUDIO:
Codec                           Language        Bitrate         Description
-----                           --------        -------         -----------
Dolby Digital Audio             Russian         192 kbps        2.0 / 48 kHz / 192 kbps
FILES:
Name            Time In         Length          Size            Total Bitrate
----            -------         ------          ----            -------------
00010.M2TS      0:00:00.000     0:01:38.973     209 885 184     16 965
00015.M2TS      0:01:38.973     0:00:00.208     6 144           236
CHAPTERS:
Number          Time In         Length          Avg Video Rate  Max 1-Sec Rate  Max 1-Sec Time  Max 5-Sec Rate  Max 5-Sec Time  Max 10Sec Rate  Max 10Sec Time  Avg Frame Size  Max Frame Size  Max Frame Time
------          -------         ------          --------------  --------------  --------------  --------------  --------------  --------------  --------------  --------------  --------------  --------------
1               0:00:00.000     0:01:39.182     15 924 kbps     26 724 kbps     00:00:20.687    23 235 kbps     00:00:19.978    21 789 kbps     00:00:18.560    83 022 bytes    317 275 bytes   00:00:18.601
STREAM DIAGNOSTICS:
File            PID             Type            Codec           Language                Seconds                 Bitrate                 Bytes           Packets
----            ---             ----            -----           --------                --------------          --------------          -------------   -----
00010.M2TS      4113 (0x1011)   0x1B            AVC                                     98,849                  15 978                  197 422 014     1 074 352
00010.M2TS      4352 (0x1100)   0x81            AC3             rus (Russian)           98,849                  192                     2 375 424       15 465
00015.M2TS      4113 (0x1011)   0x1B            AVC                                     0,125                   235                     3 679           22
QUICK SUMMARY:
Disc Title:
Disc Size: 24 813 194 530 bytes
Protection: AACS
BD-Java: No
Playlist: 00009.MPLS
Size: 209 891 328 bytes
Length: 0:01:39
Total Bitrate: 16,93 Mbps
Video: MPEG-4 AVC Video / 15924 kbps / 1080p / 23,976 fps / 16:9 / High Profile 4.1
Audio: Russian / Dolby Digital Audio / 2.0 / 48 kHz / 192 kbps
********************
PLAYLIST: 00012.MPLS
********************
Код:
Total   Video
Title                                                           Codec   Length  Movie Size      Disc Size       Bitrate Bitrate Main Audio Track                          Secondary Audio Track
-----                                                           ------  ------- --------------  --------------  ------- ------- ------------------                        ---------------------
00012.MPLS                                                      AVC     0:01:23 115 458 048     24 813 194 530  11,04   10,28   DD AC3 2.0 192Kbps
Код:
DISC INFO:
Disc Title:
Disc Size:      24 813 194 530 bytes
Protection:     AACS
BD-Java:        No
BDInfo:         0.5.3
PLAYLIST REPORT:
Name:                   00012.MPLS
Length:                 0:01:23 (h:m:s)
Size:                   115 458 048 bytes
Total Bitrate:          11,04 Mbps
VIDEO:
Codec                   Bitrate             Description
-----                   -------             -----------
MPEG-4 AVC Video        10279 kbps          1080p / 23,976 fps / 16:9 / High Profile 4.1
AUDIO:
Codec                           Language        Bitrate         Description
-----                           --------        -------         -----------
Dolby Digital Audio             Russian         192 kbps        2.0 / 48 kHz / 192 kbps
FILES:
Name            Time In         Length          Size            Total Bitrate
----            -------         ------          ----            -------------
00013.M2TS      0:00:00.000     0:01:23.458     115 451 904     11 067
00015.M2TS      0:01:23.458     0:00:00.208     6 144           236
CHAPTERS:
Number          Time In         Length          Avg Video Rate  Max 1-Sec Rate  Max 1-Sec Time  Max 5-Sec Rate  Max 5-Sec Time  Max 10Sec Rate  Max 10Sec Time  Avg Frame Size  Max Frame Size  Max Frame Time
------          -------         ------          --------------  --------------  --------------  --------------  --------------  --------------  --------------  --------------  --------------  --------------
1               0:00:00.000     0:01:23.666     10 279 kbps     36 470 kbps     00:01:02.812    20 514 kbps     00:00:51.926    18 717 kbps     00:00:47.047    53 591 bytes    700 594 bytes   00:00:49.048
STREAM DIAGNOSTICS:
File            PID             Type            Codec           Language                Seconds                 Bitrate                 Bytes           Packets
----            ---             ----            -----           --------                --------------          --------------          -------------   -----
00013.M2TS      4113 (0x1011)   0x1B            AVC                                     83,333                  10 320                  107 500 473     585 387
00013.M2TS      4352 (0x1100)   0x81            AC3             rus (Russian)           83,333                  193                     2 012 928       13 105
00015.M2TS      4113 (0x1011)   0x1B            AVC                                     0,125                   235                     3 679           22
QUICK SUMMARY:
Disc Title:
Disc Size: 24 813 194 530 bytes
Protection: AACS
BD-Java: No
Playlist: 00012.MPLS
Size: 115 458 048 bytes
Length: 0:01:23
Total Bitrate: 11,04 Mbps
Video: MPEG-4 AVC Video / 10279 kbps / 1080p / 23,976 fps / 16:9 / High Profile 4.1
Audio: Russian / Dolby Digital Audio / 2.0 / 48 kHz / 192 kbps
********************
PLAYLIST: 00013.MPLS
********************
Код:
Total   Video
Title                                                           Codec   Length  Movie Size      Disc Size       Bitrate Bitrate Main Audio Track                          Secondary Audio Track
-----                                                           ------  ------- --------------  --------------  ------- ------- ------------------                        ---------------------
00013.MPLS                                                      AVC     0:00:59 124 710 912     24 813 194 530  16,88   15,88   DD AC3 2.0 192Kbps
Код:
DISC INFO:
Disc Title:
Disc Size:      24 813 194 530 bytes
Protection:     AACS
BD-Java:        No
BDInfo:         0.5.3
PLAYLIST REPORT:
Name:                   00013.MPLS
Length:                 0:00:59 (h:m:s)
Size:                   124 710 912 bytes
Total Bitrate:          16,88 Mbps
VIDEO:
Codec                   Bitrate             Description
-----                   -------             -----------
MPEG-4 AVC Video        15877 kbps          1080p / 23,976 fps / 16:9 / High Profile 4.1
AUDIO:
Codec                           Language        Bitrate         Description
-----                           --------        -------         -----------
Dolby Digital Audio             Russian         192 kbps        2.0 / 48 kHz / 192 kbps
FILES:
Name            Time In         Length          Size            Total Bitrate
----            -------         ------          ----            -------------
00014.M2TS      0:00:00.000     0:00:58.892     124 704 768     16 940
00015.M2TS      0:00:58.892     0:00:00.208     6 144           236
CHAPTERS:
Number          Time In         Length          Avg Video Rate  Max 1-Sec Rate  Max 1-Sec Time  Max 5-Sec Rate  Max 5-Sec Time  Max 10Sec Rate  Max 10Sec Time  Avg Frame Size  Max Frame Size  Max Frame Time
------          -------         ------          --------------  --------------  --------------  --------------  --------------  --------------  --------------  --------------  --------------  --------------
1               0:00:00.000     0:00:59.100     15 877 kbps     34 983 kbps     00:00:28.319    23 704 kbps     00:00:26.025    20 846 kbps     00:00:28.028    82 778 bytes    723 629 bytes   00:00:13.013
STREAM DIAGNOSTICS:
File            PID             Type            Codec           Language                Seconds                 Bitrate                 Bytes           Packets
----            ---             ----            -----           --------                --------------          --------------          -------------   -----
00014.M2TS      4113 (0x1011)   0x1B            AVC                                     58,809                  15 956                  117 292 536     638 292
00014.M2TS      4352 (0x1100)   0x81            AC3             rus (Russian)           58,809                  192                     1 413 120       9 200
00015.M2TS      4113 (0x1011)   0x1B            AVC                                     0,125                   235                     3 679           22
QUICK SUMMARY:
Disc Title:
Disc Size: 24 813 194 530 bytes
Protection: AACS
BD-Java: No
Playlist: 00013.MPLS
Size: 124 710 912 bytes
Length: 0:00:59
Total Bitrate: 16,88 Mbps
Video: MPEG-4 AVC Video / 15877 kbps / 1080p / 23,976 fps / 16:9 / High Profile 4.1
Audio: Russian / Dolby Digital Audio / 2.0 / 48 kHz / 192 kbps
********************
PLAYLIST: 00010.MPLS
********************
Код:
Total   Video
Title                                                           Codec   Length  Movie Size      Disc Size       Bitrate Bitrate Main Audio Track                          Secondary Audio Track
-----                                                           ------  ------- --------------  --------------  ------- ------- ------------------                        ---------------------
00010.MPLS                                                      AVC     0:00:42 88 805 376      24 813 194 530  16,82   15,81   DD AC3 2.0 192Kbps
Код:
DISC INFO:
Disc Title:
Disc Size:      24 813 194 530 bytes
Protection:     AACS
BD-Java:        No
BDInfo:         0.5.3
PLAYLIST REPORT:
Name:                   00010.MPLS
Length:                 0:00:42 (h:m:s)
Size:                   88 805 376 bytes
Total Bitrate:          16,82 Mbps
VIDEO:
Codec                   Bitrate             Description
-----                   -------             -----------
MPEG-4 AVC Video        15814 kbps          1080p / 23,976 fps / 16:9 / High Profile 4.1
AUDIO:
Codec                           Language        Bitrate         Description
-----                           --------        -------         -----------
Dolby Digital Audio             Russian         192 kbps        2.0 / 48 kHz / 192 kbps
FILES:
Name            Time In         Length          Size            Total Bitrate
----            -------         ------          ----            -------------
00011.M2TS      0:00:00.000     0:00:42.042     88 799 232      16 897
00015.M2TS      0:00:42.042     0:00:00.208     6 144           236
CHAPTERS:
Number          Time In         Length          Avg Video Rate  Max 1-Sec Rate  Max 1-Sec Time  Max 5-Sec Rate  Max 5-Sec Time  Max 10Sec Rate  Max 10Sec Time  Avg Frame Size  Max Frame Size  Max Frame Time
------          -------         ------          --------------  --------------  --------------  --------------  --------------  --------------  --------------  --------------  --------------  --------------
1               0:00:00.000     0:00:42.250     15 814 kbps     22 337 kbps     00:00:33.616    19 253 kbps     00:00:21.229    18 337 kbps     00:00:16.599    82 448 bytes    295 481 bytes   00:00:04.170
STREAM DIAGNOSTICS:
File            PID             Type            Codec           Language                Seconds                 Bitrate                 Bytes           Packets
----            ---             ----            -----           --------                --------------          --------------          -------------   -----
00011.M2TS      4113 (0x1011)   0x1B            AVC                                     41,959                  15 924                  83 515 964      454 481
00011.M2TS      4352 (0x1100)   0x81            AC3             rus (Russian)           41,959                  192                     1 009 152       6 570
00015.M2TS      4113 (0x1011)   0x1B            AVC                                     0,125                   235                     3 679           22
QUICK SUMMARY:
Disc Title:
Disc Size: 24 813 194 530 bytes
Protection: AACS
BD-Java: No
Playlist: 00010.MPLS
Size: 88 805 376 bytes
Length: 0:00:42
Total Bitrate: 16,82 Mbps
Video: MPEG-4 AVC Video / 15814 kbps / 1080p / 23,976 fps / 16:9 / High Profile 4.1
Audio: Russian / Dolby Digital Audio / 2.0 / 48 kHz / 192 kbps
********************
PLAYLIST: 00008.MPLS
********************
Код:
Total   Video
Title                                                           Codec   Length  Movie Size      Disc Size       Bitrate Bitrate Main Audio Track                          Secondary Audio Track
-----                                                           ------  ------- --------------  --------------  ------- ------- ------------------                        ---------------------
00008.MPLS                                                      AVC     0:00:25 54 153 216      24 813 194 530  16,73   15,73   DD AC3 2.0 192Kbps
Код:
DISC INFO:
Disc Title:
Disc Size:      24 813 194 530 bytes
Protection:     AACS
BD-Java:        No
BDInfo:         0.5.3
PLAYLIST REPORT:
Name:                   00008.MPLS
Length:                 0:00:25 (h:m:s)
Size:                   54 153 216 bytes
Total Bitrate:          16,73 Mbps
VIDEO:
Codec                   Bitrate             Description
-----                   -------             -----------
MPEG-4 AVC Video        15732 kbps          1080p / 23,976 fps / 16:9 / High Profile 4.1
AUDIO:
Codec                           Language        Bitrate         Description
-----                           --------        -------         -----------
Dolby Digital Audio             Russian         192 kbps        2.0 / 48 kHz / 192 kbps
FILES:
Name            Time In         Length          Size            Total Bitrate
----            -------         ------          ----            -------------
00009.M2TS      0:00:00.000     0:00:25.692     54 147 072      16 860
00015.M2TS      0:00:25.692     0:00:00.208     6 144           236
CHAPTERS:
Number          Time In         Length          Avg Video Rate  Max 1-Sec Rate  Max 1-Sec Time  Max 5-Sec Rate  Max 5-Sec Time  Max 10Sec Rate  Max 10Sec Time  Avg Frame Size  Max Frame Size  Max Frame Time
------          -------         ------          --------------  --------------  --------------  --------------  --------------  --------------  --------------  --------------  --------------  --------------
1               0:00:00.000     0:00:25.900     15 732 kbps     21 472 kbps     00:00:20.437    18 950 kbps     00:00:19.519    17 412 kbps     00:00:14.097    82 018 bytes    286 651 bytes   00:00:24.065
STREAM DIAGNOSTICS:
File            PID             Type            Codec           Language                Seconds                 Bitrate                 Bytes           Packets
----            ---             ----            -----           --------                --------------          --------------          -------------   -----
00009.M2TS      4113 (0x1011)   0x1B            AVC                                     25,567                  15 936                  50 929 644      277 127
00009.M2TS      4352 (0x1100)   0x81            AC3             rus (Russian)           25,567                  193                     616 704         4 015
00015.M2TS      4113 (0x1011)   0x1B            AVC                                     0,125                   235                     3 679           22
QUICK SUMMARY:
Disc Title:
Disc Size: 24 813 194 530 bytes
Protection: AACS
BD-Java: No
Playlist: 00008.MPLS
Size: 54 153 216 bytes
Length: 0:00:25
Total Bitrate: 16,73 Mbps
Video: MPEG-4 AVC Video / 15732 kbps / 1080p / 23,976 fps / 16:9 / High Profile 4.1
Audio: Russian / Dolby Digital Audio / 2.0 / 48 kHz / 192 kbps
********************
PLAYLIST: 00002.MPLS
********************
Код:
Total   Video
Title                                                           Codec   Length  Movie Size      Disc Size       Bitrate Bitrate Main Audio Track                          Secondary Audio Track
-----                                                           ------  ------- --------------  --------------  ------- ------- ------------------                        ---------------------
00002.MPLS                                                      MPEG-2  0:00:24 57 298 944      24 813 194 530  18,72   17,41   DD AC3 5.1 448Kbps
Код:
DISC INFO:
Disc Title:
Disc Size:      24 813 194 530 bytes
Protection:     AACS
BD-Java:        No
BDInfo:         0.5.3
PLAYLIST REPORT:
Name:                   00002.MPLS
Length:                 0:00:24 (h:m:s)
Size:                   57 298 944 bytes
Total Bitrate:          18,72 Mbps
VIDEO:
Codec                   Bitrate             Description
-----                   -------             -----------
MPEG-2 Video            17413 kbps          1080p / 23,976 fps / 16:9
AUDIO:
Codec                           Language        Bitrate         Description
-----                           --------        -------         -----------
Dolby Digital Audio             English         448 kbps        5.1 / 48 kHz / 448 kbps
FILES:
Name            Time In         Length          Size            Total Bitrate
----            -------         ------          ----            -------------
00002.M2TS      0:00:00.000     0:00:24.482     57 298 944      18 723
CHAPTERS:
Number          Time In         Length          Avg Video Rate  Max 1-Sec Rate  Max 1-Sec Time  Max 5-Sec Rate  Max 5-Sec Time  Max 10Sec Rate  Max 10Sec Time  Avg Frame Size  Max Frame Size  Max Frame Time
------          -------         ------          --------------  --------------  --------------  --------------  --------------  --------------  --------------  --------------  --------------  --------------
1               0:00:00.000     0:00:24.482     17 413 kbps     30 598 kbps     00:00:02.502    22 529 kbps     00:00:01.251    19 769 kbps     00:00:00.875    90 785 bytes    364 573 bytes   00:00:24.441
STREAM DIAGNOSTICS:
File            PID             Type            Codec           Language                Seconds                 Bitrate                 Bytes           Packets
----            ---             ----            -----           --------                --------------          --------------          -------------   -----
00002.M2TS      4113 (0x1011)   0x02            MPEG-2                                  24,399                  17 473                  53 290 608      289 974
00002.M2TS      4352 (0x1100)   0x81            AC3             eng (English)           24,399                  448                     1 365 504       7 620
QUICK SUMMARY:
Disc Title:
Disc Size: 24 813 194 530 bytes
Protection: AACS
BD-Java: No
Playlist: 00002.MPLS
Size: 57 298 944 bytes
Length: 0:00:24
Total Bitrate: 18,72 Mbps
Video: MPEG-2 Video / 17413 kbps / 1080p / 23,976 fps / 16:9
Audio: English / Dolby Digital Audio / 5.1 / 48 kHz / 448 kbps

Бонус

Сцены не вошедшие в фильм
Фотогалерея
Клип на песню дорога из к/ф книга мастеров в исполнении Максим
Видеоролики - игра Книги мастеров
Волшебство Disney.ru
[Профиль] [ЛС]
Кто просматривает тему:

Форум Тема Автор Размер
Ужасы и мистика 81 миля (Стивен Кинг) [2014, Ужасы, аудиокнига, MP3, 128 kbps, Олег Воротилин] Magnat 101 MB
Ужасы и мистика N. (Кинг Стивен) [2014, Мистика, аудиокнига, MP3, 128 kbps, vaska_hulya] Magnat 155 MB
Ужасы и мистика Splatterpunk stories 4 (Шокирующие истории 4) - Последняя глава (Эдвард Ли, Ричард Лаймон и др.) [2015, Ужасы, аудиокнига, MP3, 192kbps, Владимир Князев] Magnat 921 MB
Фантастика и фэнтези Warhammer 40000. ...И вечный бой. Рассказы (07 из 12) (Френч Джон, Ральфс Мэтт, Торп Гэв и др.) [2015, Фантастика, аудиокнига, MP3, 128 kbps, Gel2323] Magnat 605 MB
Фантастика и фэнтези Warhammer 40000. Ересь Хоруса. Книга 22. Шрамы (Райт Крис) [2015, Фантастика, аудиокнига, MP3, 128 kbps, Gel2323] Magnat 633 MB
Программы [Разное] Поиск в книгах v1.4 [Android 4.0, RUS + ENG] TorrentFilm 28 MB
Зарубежные мультсериалы Аватар: Легенда о Корре / The Legend of Korra (1-3 сезон полные: 39 серий) (Книга 1-3) (Michael Dante DiMartino / Майкл Данте ДиМартино) [2012-2014 г., мультсериал, приключения, фэнтези, WEB-DLRip]... sergej644 11.16 GB
Путешествия и приключения Аку-аку: Тайна острова Пасхи (Тур Хейердал) [2010, Путешествия, аудиокнига, MP3, 96 kbps, Елена Халатова] Magnat 668 MB
Показать сообщения:    

Текущее время: Сегодня 20:43

Часовой пояс: GMT



Вы не можете начинать темы
Вы не можете отвечать на сообщения
Вы не можете редактировать свои сообщения
Вы не можете удалять свои сообщения
Вы не можете голосовать в опросах
Вы не можете прикреплять файлы к сообщениям
Вы не можете скачивать файлы