Книга Илая / The Book of Eli (Альберт Хьюз, Аллен Хьюз)[2010, боевик, триллер, драма, BDRip] 1080p

 
Автор Сообщение

sergej644 ®

Пол:

Стаж: 4 года 11 месяцев

Сообщений: 6044

Откуда: Soviet Union



Награды: Нет

Торрент-статистика

Создавать темы 15-Ноя-2014 21:48

[Цитировать]

--Книга Илая / The Book of Eli (2010)
Информация о фильме
Название: Книга Илая
Оригинальное название: The Book of Eli
Год выхода: 2010
Жанр: боевик, триллер, драма, приключения, вестерн
Режиссер: Альберт Хьюз, Аллен Хьюз
В ролях: Дензел Вашингтон, Гари Олдман, Мила Кунис, Рэй Стивенсон, Дженнифер Билз, Ивэн Джонс, Джо Пинг, Фрэнсис Де Ла Тур, Майкл Гэмбон, Том Уэйтс
О фильме: После вселенской катастрофы Америка превратилась в выжженную пустыню. По бескрайним дорогам, кишащим бандами, враждующими между собой за воду и еду, странствует мудрый Илай. Однажды он прибывает в мрачные края, где когда-то была цветущая Калифорния, а теперь это сущий ад, где бесчинствует тиран Карнеги.


Выпущено: Alcon Entertainment
Продолжительность: 01:57:36
Перевод: Дублированный (лицензия) + Авторский (А.Гаврилов)
Файл
Кодек: x264
Качество: BDRip (источник: Blu-ray Disc)
Видео: 1920x800 (2,40:1), 23.976 fps, 7530 kbps
Аудио #1: AC-3, 6 ch, 640 kbps (Дубляж)
Аудио #2: AC-3, 6 ch, 640 kbps (Одноголосый закадровый, А.Гаврилов)
Аудио #3: AC-3, 6 ch, 640 kbps (Оригинал)
Субтитры: Русские, Английские
Скачать: сэмпл
Скриншоты

MI

Общее
Уникальный идентификатор         : 192496759548454737257474309547924710126 (0x90D186FFD503AB278DE0C7B631A4E2EE)
Полное имя                       : The.Book.of.Eli.2010.BDRip.1080p.Rus.Eng.mkv
Формат                           : Matroska
Версия формата                   : Version 2
Размер файла                     : 7,77 Гбайт
Продолжительность                : 1 ч. 57 м.
Общий поток                      : 9445 Кбит/сек
Название фильма                  : Книга Илая / The Book of Eli (2010)
Дата кодирования                 : UTC 2012-06-07 04:45:56
Программа кодирования            : mkvmerge v5.5.0 ('Healer') built on Apr  6 2012 21:43:24
Библиотека кодирования           : libebml v1.2.3 + libmatroska v1.3.0
Видео
Идентификатор                    : 1
Формат                           : AVC
Формат/Информация                : Advanced Video Codec
Профиль формата                  : High@L4.1
Параметр CABAC формата           : Да
Параметр ReFrames формата        : 5 кадров
Идентификатор кодека             : V_MPEG4/ISO/AVC
Продолжительность                : 1 ч. 57 м.
Битрейт                          : 7530 Кбит/сек
Ширина                           : 1920 пикселей
Высота                           : 800 пикселей
Соотношение сторон               : 2,40:1
Частота кадров                   : 23,976 кадра/сек
Цветовое пространство            : YUV
Субдискретизация насыщенности    : 4:2:0
Битовая глубина                  : 8 бит
Тип развёртки                    : Прогрессивная
Бит/(Пиксели*Кадры)              : 0.204
Размер потока                    : 6,03 Гбайт (78%)
Заголовок                        : Release by AlexKa
Библиотека кодирования           : x264 core 125 r2200 999b753
Настройки программы              : cabac=1 / ref=5 / deblock=1:-3:-3 / analyse=0x3:0x133 / me=umh / subme=11 / psy=1 / psy_rd=1.10:0.00 / mixed_ref=1 / me_range=32 / chroma_me=1 / trellis=2 / 8x8dct=1 / cqm=0 / deadzone=21,11 / fast_pskip=0 / chroma_qp_offset=-2 / threads=12 / lookahead_threads=2 / sliced_threads=0 / nr=0 / decimate=0 / interlaced=0 / bluray_compat=0 / constrained_intra=0 / bframes=3 / b_pyramid=2 / b_adapt=2 / b_bias=0 / direct=3 / weightb=1 / open_gop=0 / weightp=2 / keyint=240 / keyint_min=23 / scenecut=40 / intra_refresh=0 / rc_lookahead=60 / rc=2pass / mbtree=1 / bitrate=7530 / ratetol=1.0 / qcomp=0.60 / qpmin=0 / qpmax=69 / qpstep=4 / cplxblur=20.0 / qblur=0.5 / ip_ratio=1.40 / aq=1:0.70
Язык                             : English
Аудио #1
Идентификатор                    : 2
Формат                           : AC-3
Формат/Информация                : Audio Coding 3
Расширение режима                : CM (complete main)
Идентификатор кодека             : A_AC3
Продолжительность                : 1 ч. 57 м.
Вид битрейта                     : Постоянный
Битрейт                          : 640 Кбит/сек
Каналы                           : 6 каналов
Расположение каналов             : Front: L C R, Side: L R, LFE
Частота                          : 48,0 КГц
Битовая глубина                  : 16 бит
Метод сжатия                     : С потерями
Размер потока                    : 539 Мбайт (7%)
Заголовок                        : Дубляж
Язык                             : Russian
Аудио #2
Идентификатор                    : 3
Формат                           : AC-3
Формат/Информация                : Audio Coding 3
Расширение режима                : CM (complete main)
Идентификатор кодека             : A_AC3
Продолжительность                : 1 ч. 57 м.
Вид битрейта                     : Постоянный
Битрейт                          : 640 Кбит/сек
Каналы                           : 6 каналов
Расположение каналов             : Front: L C R, Side: L R, LFE
Частота                          : 48,0 КГц
Битовая глубина                  : 16 бит
Метод сжатия                     : С потерями
Размер потока                    : 539 Мбайт (7%)
Заголовок                        : Одноголосый закадровый, А.Гаврилов
Язык                             : Russian
Аудио #3
Идентификатор                    : 4
Формат                           : AC-3
Формат/Информация                : Audio Coding 3
Расширение режима                : CM (complete main)
Идентификатор кодека             : A_AC3
Продолжительность                : 1 ч. 57 м.
Вид битрейта                     : Постоянный
Битрейт                          : 640 Кбит/сек
Каналы                           : 6 каналов
Расположение каналов             : Front: L C R, Side: L R, LFE
Частота                          : 48,0 КГц
Битовая глубина                  : 16 бит
Метод сжатия                     : С потерями
Размер потока                    : 539 Мбайт (7%)
Заголовок                        : Оригинал
Язык                             : English
Текст #1
Идентификатор                    : 5
Формат                           : UTF-8
Идентификатор кодека             : S_TEXT/UTF8
Идентификатор кодека/Информация  : UTF-8 Plain Text
Заголовок                        : Rus
Язык                             : Russian
Текст #2
Идентификатор                    : 6
Формат                           : UTF-8
Идентификатор кодека             : S_TEXT/UTF8
Идентификатор кодека/Информация  : UTF-8 Plain Text
Заголовок                        : Eng
Язык                             : English
Меню
00:00:00.000                     : :Chapter 01
00:08:20.208                     : :Chapter 02
00:15:40.648                     : :Chapter 03
00:21:36.336                     : :Chapter 04
00:27:44.996                     : :Chapter 05
00:33:24.168                     : :Chapter 06
00:39:14.518                     : :Chapter 07
00:45:21.885                     : :Chapter 08
00:54:17.295                     : :Chapter 09
01:02:05.805                     : :Chapter 10
01:11:50.848                     : :Chapter 11
01:20:52.597                     : :Chapter 12
01:29:36.412                     : :Chapter 13
01:36:44.048                     : :Chapter 14
01:41:12.983                     : :Chapter 15
01:45:08.552                     : :Chapter 16

x264

x264 [info]: frame I:1284  Avg QP:10.88  size:211619
x264 [info]: frame P:48466 Avg QP:14.00  size: 76001
x264 [info]: frame B:119426 Avg QP:16.91  size: 22495
--
[Профиль] [ЛС]
Кто просматривает тему:

Форум Тема Автор Размер
Ужасы и мистика 81 миля (Стивен Кинг) [2014, Ужасы, аудиокнига, MP3, 128 kbps, Олег Воротилин] Magnat 101 MB
Ужасы и мистика N. (Кинг Стивен) [2014, Мистика, аудиокнига, MP3, 128 kbps, vaska_hulya] Magnat 155 MB
Ужасы и мистика Splatterpunk stories 4 (Шокирующие истории 4) - Последняя глава (Эдвард Ли, Ричард Лаймон и др.) [2015, Ужасы, аудиокнига, MP3, 192kbps, Владимир Князев] Magnat 921 MB
Фантастика и фэнтези Warhammer 40000. ...И вечный бой. Рассказы (07 из 12) (Френч Джон, Ральфс Мэтт, Торп Гэв и др.) [2015, Фантастика, аудиокнига, MP3, 128 kbps, Gel2323] Magnat 605 MB
Фантастика и фэнтези Warhammer 40000. Ересь Хоруса. Книга 22. Шрамы (Райт Крис) [2015, Фантастика, аудиокнига, MP3, 128 kbps, Gel2323] Magnat 633 MB
Программы [Разное] Поиск в книгах v1.4 [Android 4.0, RUS + ENG] TorrentFilm 28 MB
Зарубежные мультсериалы Аватар: Легенда о Корре / The Legend of Korra (1-3 сезон полные: 39 серий) (Книга 1-3) (Michael Dante DiMartino / Майкл Данте ДиМартино) [2012-2014 г., мультсериал, приключения, фэнтези, WEB-DLRip]... sergej644 11.16 GB
Путешествия и приключения Аку-аку: Тайна острова Пасхи (Тур Хейердал) [2010, Путешествия, аудиокнига, MP3, 96 kbps, Елена Халатова] Magnat 668 MB
Показать сообщения:    

Текущее время: Сегодня 14:27

Часовой пояс: GMT



Вы не можете начинать темы
Вы не можете отвечать на сообщения
Вы не можете редактировать свои сообщения
Вы не можете удалять свои сообщения
Вы не можете голосовать в опросах
Вы не можете прикреплять файлы к сообщениям
Вы не можете скачивать файлы