Книга Илая / The Book of Eli (Альберт Хьюз / Albert Hughes, Аллен Хьюз / Allen Hughes) [2010 г., боевик, триллер, BDRip-AVC] Dub + Original + Subs (Rus, Eng)

 
Автор Сообщение

painkiller ®

Стаж: 2 года 3 месяца

Сообщений: 582



Награды: Нет

Торрент-статистика

Создавать темы 17-Авг-2014 01:01

[Цитировать]

Книга ИлаяThe Book of Eli«Одни готовы убивать, чтобы завладеть ею. Он готов убивать, чтобы защитить её»- Страна: США
Жанр: боевик, триллер, драма, приключения
Год выпуска: 2010
Продолжительность: 01:57:36-Перевод: Профессиональный (полное дублирование)
Оригинальная аудиодорожка: английский.
Субтитры: русские, английские.
Режиссер: Альберт Хьюз / Albert Hughes, Аллен Хьюз / Allen Hughes
В ролях:
Дензел Вашингтон (Eli), Гари Олдман (Carnegie), Мила Кунис (Solara), Рэй Стивенсон (Redridge), Дженнифер Билз (Claudia), Малкольм МакДауэлл (Lombardi, в титрах не указан), Фрэнсис де ла Тур (Martha), Майкл Гэмбон (George), Том Уэйтс (Engineer), Ивэн Джонс (Martz), Джо Пинг (Hoyt), Крис Браунинг (Hijack Leader)
Дублёры: Денис Беспалый (Eli), Леонид Белозорович (Carnegie), Елена Лагута (Solara), Михаил Георгиу (Redridge), Любовь Германова (Claudia), Олег Форостенко (Lombardi), Александра Назарова (Martha), Андрей Ярославцев (George), Никита Прозоровский (Engineer), Константин Карасик (Martz), Борис Шувалов (Hijack Leader), Радик Мухаметзянов-Описание: После мировой катастрофы Америка превратилась в выжженную пустыню. По бескрайним дорогам, кишащим бандами, враждующими между собой за воду и еду, странствует мудрый Илай. Однажды он прибывает в мрачные края, где когда-то была цветущая Калифорния, а теперь это сущий ад, где бесчинствует тиран Карнеги.---
MPAA: R - Лицам до 17 лет обязательно присутствие взрослого-Качество: BDRip-AVC
Контейнер: MKV
Видео: AVC, 1152x480 (2.40:1), 2714 kbps, 23,976 fps, 0,205 bpp
Аудио №1: русский / AC3 / 5.1 / 48 kHz / 384 kbps / Дублированный
Аудио №2: русский / AC3 / 5.1 / 48 kHz / 448 kbps / Гаврилов / отдельно
Аудио №3: английский / AC3 / 5.1 / 48 kHz / 448 kbps / Eng
Субтитры: русские, английские.
Навигация по главам: есть (главы подписаны)-

Media Infox264

x264

x264 [info]: frame I:1137 Avg QP:11.58 size: 94293 PSNR Mean Y:51.04 U:54.33 V:54.28 Avg:51.87 Global:51.44
x264 [info]: frame P:39484 Avg QP:14.47 size: 30003 PSNR Mean Y:48.74 U:52.87 V:52.80 Avg:49.69 Global:49.17
x264 [info]: frame B:128550 Avg QP:17.14 size: 8575 PSNR Mean Y:47.99 U:52.61 V:52.54 Avg:49.02 Global:48.49
x264 [info]: consecutive B-frames: 2.9% 4.9% 6.9% 27.7% 16.6% 22.6% 5.9% 8.8% 1.3% 0.7% 0.4% 0.9% 0.2% 0.2%
x264 [info]: mb I I16..4: 8.3% 65.2% 26.5%
x264 [info]: mb P I16..4: 0.7% 7.9% 1.3% P16..4: 30.3% 39.9% 17.6% 0.0% 0.0% skip: 2.3%
x264 [info]: mb B I16..4: 0.0% 0.6% 0.1% B16..8: 32.9% 23.0% 4.4% direct: 5.4% skip:33.6% L0:42.9% L1:42.4% BI:14.7%
x264 [info]: 8x8 transform intra:77.7% inter:42.1%
x264 [info]: direct mvs spatial:97.9% temporal:2.1%
x264 [info]: coded y,uvDC,uvAC intra: 92.1% 77.2% 61.6% inter: 23.8% 13.4% 8.7%
x264 [info]: i16 v,h,dc,p: 32% 12% 14% 42%
x264 [info]: i8 v,h,dc,ddl,ddr,vr,hd,vl,hu: 11% 13% 9% 9% 11% 11% 12% 11% 14%
x264 [info]: i4 v,h,dc,ddl,ddr,vr,hd,vl,hu: 10% 10% 6% 9% 16% 14% 13% 10% 12%
x264 [info]: i8c dc,h,v,p: 40% 30% 18% 12%
x264 [info]: Weighted P-Frames: Y:4.7% UV:2.0%
x264 [info]: ref P L0: 47.1% 8.3% 17.3% 7.1% 5.8% 4.3% 3.8% 2.1% 2.0% 1.8% 0.3% 0.0%
x264 [info]: ref B L0: 70.9% 12.6% 6.3% 3.6% 2.4% 2.0% 1.5% 0.6% 0.3%
x264 [info]: ref B L1: 91.9% 8.1%
x264 [info]: SSIM Mean Y:0.9904926 (20.219db)
x264 [info]: PSNR Mean Y:48.188 U:52.680 V:52.609 Avg:49.196 Global:48.657 kb/s:2714.61
x264 [total]: encoded 169171 frames, 6.49 fps, 2714.61 kb/s

MediaInfo

General
Unique ID : 186223394735289279731009069391490574458 (0x8C19523BE848DAFBA101DF32360BE87A)
Complete name : D:\The Book of Eli.2009.BDrip-AVC.Froloff777\The Book of Eli.2009.BDrip-AVC.Froloff777.mkv
Format : Matroska
Format version : Version 4 / Version 2
File size : 2.92 GiB
Duration : 1h 57mn
Overall bit rate : 3 549 Kbps
Movie name : The Book of Eli
Encoded date : UTC 2014-03-10 16:48:51
Writing application : mkvmerge v6.1.0 ('Old Devil') built on Mar 4 2013 09:10:42
Writing library : libebml v1.3.0 + libmatroska v1.4.0
Attachment : Yes
Video
ID : 1
Format : AVC
Format/Info : Advanced Video Codec
Format profile : High@L4.1
Format settings, CABAC : Yes
Format settings, ReFrames : 10 frames
Codec ID : V_MPEG4/ISO/AVC
Duration : 1h 57mn
Bit rate : 2 714 Kbps
Width : 1 152 pixels
Height : 480 pixels
Display aspect ratio : 2.40:1
Frame rate mode : Constant
Frame rate : 23.976 fps
Color space : YUV
Chroma subsampling : 4:2:0
Bit depth : 8 bits
Scan type : Progressive
Bits/(Pixel*Frame) : 0.205
Stream size : 2.17 GiB (75%)
Title : The Book of Eli
Writing library : x264 core 130 r2273 b3065e6
Encoding settings : cabac=1 / ref=10 / deblock=1:-3:-2 / analyse=0x3:0x113 / me=umh / subme=11 / psy=1 / psy_rd=1.00:0.05 / mixed_ref=1 / me_range=32 / chroma_me=1 / trellis=2 / 8x8dct=1 / cqm=0 / deadzone=21,11 / fast_pskip=0 / chroma_qp_offset=-3 / threads=6 / lookahead_threads=1 / sliced_threads=0 / nr=0 / decimate=0 / interlaced=0 / bluray_compat=0 / constrained_intra=0 / bframes=13 / b_pyramid=2 / b_adapt=2 / b_bias=0 / direct=3 / weightb=1 / open_gop=0 / weightp=2 / keyint=250 / keyint_min=24 / scenecut=40 / intra_refresh=0 / rc_lookahead=60 / rc=2pass / mbtree=0 / bitrate=2714 / ratetol=1.0 / qcomp=0.60 / qpmin=0 / qpmax=69 / qpstep=4 / cplxblur=20.0 / qblur=0.5 / vbv_maxrate=50000 / vbv_bufsize=62500 / nal_hrd=none / ip_ratio=1.35 / pb_ratio=1.35 / aq=2:0.80
Language : English
Default : Yes
Forced : No
Audio #1
ID : 2
Format : AC-3
Format/Info : Audio Coding 3
Mode extension : CM (complete main)
Format settings, Endianness : Big
Codec ID : A_AC3
Duration : 1h 57mn
Bit rate mode : Constant
Bit rate : 384 Kbps
Channel count : 6 channels
Channel positions : Front: L C R, Side: L R, LFE
Sampling rate : 48.0 KHz
Bit depth : 16 bits
Compression mode : Lossy
Stream size : 323 MiB (11%)
Title : Дублированный
Language : Russian
Default : Yes
Forced : No
Audio #2
ID : 3
Format : AC-3
Format/Info : Audio Coding 3
Mode extension : CM (complete main)
Format settings, Endianness : Big
Codec ID : A_AC3
Duration : 1h 57mn
Bit rate mode : Constant
Bit rate : 448 Kbps
Channel count : 6 channels
Channel positions : Front: L C R, Side: L R, LFE
Sampling rate : 48.0 KHz
Bit depth : 16 bits
Compression mode : Lossy
Stream size : 377 MiB (13%)
Language : English
Default : No
Forced : No
Text #1
ID : 4
Format : UTF-8
Codec ID : S_TEXT/UTF8
Codec ID/Info : UTF-8 Plain Text
Language : Russian
Default : No
Forced : No
Text #2
ID : 5
Format : UTF-8
Codec ID : S_TEXT/UTF8
Codec ID/Info : UTF-8 Plain Text
Language : English
Default : No
Forced : No
Menu
00:00:00.000 : en:1 - Target
00:05:37.087 : en:2 - Night's Rest
00:11:33.693 : en:3 - Hijackers
00:18:31.110 : en:4 - Stay on the Path
00:20:47.455 : en:5 - Just a Customer
00:24:09.865 : en:6 - Look for a Book
00:27:45.038 : en:7 - Called to Account
00:31:29.262 : en:8 - Cursed Be the Ground
00:33:24.211 : en:9 - We're the Future
00:39:14.561 : en:10 - Not Talking But Sharing
00:45:21.928 : en:11 - What Kind of Book?
00:49:05.734 : en:12 - I Love This Guy
00:54:17.337 : en:13 - Worth the Trouble
00:58:39.433 : en:14 - Saving Solara
01:03:00.151 : en:15 - Protected Somehow
01:05:52.073 : en:16 - Voice in My Head
01:11:50.890 : en:17 - George and Martha
01:16:41.388 : en:18 - Homewreckers
01:20:52.639 : en:19 - Just a Man
01:26:22.010 : en:20 - Solara Unbound
01:30:27.714 : en:21 - West Coast
01:34:55.815 : en:22 - Book Contents
01:41:13.025 : en:23 - A Million Miles Away
01:44:47.114 : en:24 - I Kept the Faith
01:48:41.598 : en:25 - End Titles
-

Скриншоты

--
[Профиль] [ЛС]

Создавать темы 06-Авг-2015 23:09 (спустя 11 месяцев 20 дней)

Топик был перенесен из форума Фильмы до 2014 года в форум Фильмы до 2012 года
sergej644
 

Создавать темы 12-Июн-2016 07:54 (спустя 1 год 9 месяцев)

Топик был перенесен из форума Фильмы 2011 года в форум Фильмы 2010 года
Russian Mafia
 
Кто просматривает тему:

Форум Тема Автор Размер
Ужасы и мистика 81 миля (Стивен Кинг) [2014, Ужасы, аудиокнига, MP3, 128 kbps, Олег Воротилин] Magnat 101 MB
Ужасы и мистика N. (Кинг Стивен) [2014, Мистика, аудиокнига, MP3, 128 kbps, vaska_hulya] Magnat 155 MB
Ужасы и мистика Splatterpunk stories 4 (Шокирующие истории 4) - Последняя глава (Эдвард Ли, Ричард Лаймон и др.) [2015, Ужасы, аудиокнига, MP3, 192kbps, Владимир Князев] Magnat 921 MB
Фантастика и фэнтези Warhammer 40000. ...И вечный бой. Рассказы (07 из 12) (Френч Джон, Ральфс Мэтт, Торп Гэв и др.) [2015, Фантастика, аудиокнига, MP3, 128 kbps, Gel2323] Magnat 605 MB
Фантастика и фэнтези Warhammer 40000. Ересь Хоруса. Книга 22. Шрамы (Райт Крис) [2015, Фантастика, аудиокнига, MP3, 128 kbps, Gel2323] Magnat 633 MB
Программы [Разное] Поиск в книгах v1.4 [Android 4.0, RUS + ENG] TorrentFilm 28 MB
Зарубежные мультсериалы Аватар: Легенда о Корре / The Legend of Korra (1-3 сезон полные: 39 серий) (Книга 1-3) (Michael Dante DiMartino / Майкл Данте ДиМартино) [2012-2014 г., мультсериал, приключения, фэнтези, WEB-DLRip]... sergej644 11.16 GB
Путешествия и приключения Аку-аку: Тайна острова Пасхи (Тур Хейердал) [2010, Путешествия, аудиокнига, MP3, 96 kbps, Елена Халатова] Magnat 668 MB
Показать сообщения:    

Текущее время: Сегодня 04:45

Часовой пояс: GMT



Вы не можете начинать темы
Вы не можете отвечать на сообщения
Вы не можете редактировать свои сообщения
Вы не можете удалять свои сообщения
Вы не можете голосовать в опросах
Вы не можете прикреплять файлы к сообщениям
Вы не можете скачивать файлы