Книга Илая / The Book of Eli (Альберт Хьюз / Albert Hughes, Аллен Хьюз / Allen Hughes) [2009, США, Боевик, триллер, драма, приключения, BDRip] Dub + Original (Eng) + Sub (Rus, Eng)

 
Автор Сообщение

TorrentFilm ®

Пол:

Стаж: 2 года

Сообщений: 7741



Награды: Нет

Торрент-статистика

Создавать темы 04-Сен-2015 00:10

[Цитировать]

Книга Илая / The Book of Eli
«Одни готовы убивать, чтобы завладеть ею. Он готов убивать, чтобы защитить её»
- Год выпуска: 2009
Выпущено: США / Alcon Entertainment
Жанр: боевик, триллер, драма, приключения
Продолжительность: 01:57:36
Перевод: Профессиональный (полное дублирование) BD RUS
Cубтитры: Русские (полные 3 вида + форсированные), Английские (внешние .srt*)
Оригинальная аудиодорожка: Английская-Режиссер:
Альберт Хьюз / Albert Hughes, Аллен Хьюз / Allen Hughes-В ролях:
Дензел Вашингтон (Eli), Гари Олдман (Carnegie), Мила Кунис (Solara), Рэй Стивенсон (Redridge), Дженнифер Билз (Claudia), Малкольм МакДауэлл (Lombardi), Фрэнсис де ла Тур (Martha), Майкл Гэмбон (George), Том Уэйтс (Engineer), Ивэн Джонс (Martz), Джо Пинг (Hoyt)-Описание:
После мировой катастрофы Америка превратилась в выжженную пустыню. По бескрайним дорогам, кишащим бандами, враждующими между собой за воду и еду, странствует мудрый Илай. Однажды он прибывает в мрачные края, где когда-то была цветущая Калифорния, а теперь это сущий ад, где бесчинствует тиран Карнеги.-Релиз групп | | IMDB | КиноПоиск | Сэмпл |-Качество: BDRip [Blu-Ray Disc | 1080p | BLUEBIRD]
Формат: AVI
Видео: 720x304 (2.37:1), 23.976 fps, XviD build 73 ~1878 kbps avg, 0.36 bit/pixel
Аудио #1: 48 kHz, AC3 Dolby Digital, 3/2 (L,C,R,l,r) + LFE ch, ~384.00 kbps avg (RUS)
Аудио #2: 48 kHz, AC3 Dolby Digital, 3/2 (L,C,R,l,r) + LFE ch, ~384.00 kbps avg (ENG)
-

Скриншоты

MediaInfo

General
Complete name                            : D:\Kniga_Ilaya_2009_BDRip_[2.18]_by_Dalemake.avi
Format                                   : AVI
Format/Info                              : Audio Video Interleave
Format profile                           : OpenDML
File size                                : 2.18 GiB
Duration                                 : 1h 57mn
Overall bit rate                         : 2 654 Kbps
Writing application                      : VirtualDubMod 1.5.10.3 | www.virtualdub-fr.org || (build 2550/release)
Writing library                          : VirtualDubMod build 2550/release
Video
ID                                       : 0
Format                                   : MPEG-4 Visual
Format profile                           : Advanced Simple@L5
Format settings, BVOP                    : 1
Format settings, QPel                    : No
Format settings, GMC                     : No warppoints
Format settings, Matrix                  : Custom
Codec ID                                 : XVID
Codec ID/Hint                            : XviD
Duration                                 : 1h 57mn
Bit rate                                 : 1 868 Kbps
Width                                    : 720 pixels
Height                                   : 304 pixels
Display aspect ratio                     : 2.35:1
Frame rate                               : 23.976 fps
Color space                              : YUV
Chroma subsampling                       : 4:2:0
Bit depth                                : 8 bits
Scan type                                : Progressive
Compression mode                         : Lossy
Bits/(Pixel*Frame)                       : 0.356
Stream size                              : 1.53 GiB (70%)
Writing library                          : XviD 73
Audio #1
ID                                       : 1
Format                                   : AC-3
Format/Info                              : Audio Coding 3
Mode extension                           : CM (complete main)
Format settings, Endianness              : Big
Codec ID                                 : 2000
Duration                                 : 1h 57mn
Bit rate mode                            : Constant
Bit rate                                 : 384 Kbps
Channel(s)                               : 6 channels
Channel positions                        : Front: L C R, Side: L R, LFE
Sampling rate                            : 48.0 KHz
Bit depth                                : 16 bits
Compression mode                         : Lossy
Stream size                              : 323 MiB (14%)
Alignment                                : Split accross interleaves
Interleave, duration                     : 42 ms (1.00 video frame)
Interleave, preload duration             : 500 ms
Audio #2
ID                                       : 2
Format                                   : AC-3
Format/Info                              : Audio Coding 3
Mode extension                           : CM (complete main)
Format settings, Endianness              : Big
Codec ID                                 : 2000
Duration                                 : 1h 57mn
Bit rate mode                            : Constant
Bit rate                                 : 384 Kbps
Channel(s)                               : 6 channels
Channel positions                        : Front: L C R, Side: L R, LFE
Sampling rate                            : 48.0 KHz
Bit depth                                : 16 bits
Compression mode                         : Lossy
Stream size                              : 323 MiB (14%)
Alignment                                : Split accross interleaves
Interleave, duration                     : 42 ms (1.00 video frame)
Interleave, preload duration             : 500 ms
-
[Профиль] [ЛС]

Создавать темы 12-Июн-2016 08:13 (спустя 9 месяцев 8 дней)

Топик был перенесен из форума Фильмы 2011 года в форум Фильмы 2009 года
Russian Mafia
 
Кто просматривает тему:

Форум Тема Автор Размер
Ужасы и мистика 81 миля (Стивен Кинг) [2014, Ужасы, аудиокнига, MP3, 128 kbps, Олег Воротилин] Magnat 101 MB
Ужасы и мистика N. (Кинг Стивен) [2014, Мистика, аудиокнига, MP3, 128 kbps, vaska_hulya] Magnat 155 MB
Ужасы и мистика Splatterpunk stories 4 (Шокирующие истории 4) - Последняя глава (Эдвард Ли, Ричард Лаймон и др.) [2015, Ужасы, аудиокнига, MP3, 192kbps, Владимир Князев] Magnat 921 MB
Фантастика и фэнтези Warhammer 40000. ...И вечный бой. Рассказы (07 из 12) (Френч Джон, Ральфс Мэтт, Торп Гэв и др.) [2015, Фантастика, аудиокнига, MP3, 128 kbps, Gel2323] Magnat 605 MB
Фантастика и фэнтези Warhammer 40000. Ересь Хоруса. Книга 22. Шрамы (Райт Крис) [2015, Фантастика, аудиокнига, MP3, 128 kbps, Gel2323] Magnat 633 MB
Программы [Разное] Поиск в книгах v1.4 [Android 4.0, RUS + ENG] TorrentFilm 28 MB
Зарубежные мультсериалы Аватар: Легенда о Корре / The Legend of Korra (1-3 сезон полные: 39 серий) (Книга 1-3) (Michael Dante DiMartino / Майкл Данте ДиМартино) [2012-2014 г., мультсериал, приключения, фэнтези, WEB-DLRip]... sergej644 11.16 GB
Путешествия и приключения Аку-аку: Тайна острова Пасхи (Тур Хейердал) [2010, Путешествия, аудиокнига, MP3, 96 kbps, Елена Халатова] Magnat 668 MB
Показать сообщения:    

Текущее время: Сегодня 12:52

Часовой пояс: GMT



Вы не можете начинать темы
Вы не можете отвечать на сообщения
Вы не можете редактировать свои сообщения
Вы не можете удалять свои сообщения
Вы не можете голосовать в опросах
Вы не можете прикреплять файлы к сообщениям
Вы не можете скачивать файлы