Книга жизни / The Book of Life (2014) BDRip 720p | Лицензия

 
Автор Сообщение

достали все ®

Пол:

Стаж: 1 год 8 месяцев

Сообщений: 6536



Награды: 12 (Подробнее)

Mega Releaser 1 (Количество: 1) Mega Seeder 3 (Количество: 1) Mega Seeder 2 (Количество: 1)
Торрент-статистика

Создавать темы 19-Апр-2015 07:14

[Цитировать]

Информация о фильме
Название: Книга жизни
Оригинальное название: The Book of Life
Год выпуска: 2014
Жанр: Мультфильм, фэнтези, мелодрама, комедия, приключения, семейный, полнометражный
Выпущено: США, Chatrone, Reel FX Creative Studios, Twentieth Century Fox
Режиссер: Хорхе Р. Гутьеррес
В ролях: Диего Луна, Зои Салдана, Ченнинг Татум, Рон Перлман, Кристина Эпплгейт, Айс Кьюб, Кейт дель Кастильо, Гектор Элизондо, Дэнни Трехо, Карлос Аласраки
О фильме: События полнометражного мультфильма «Книга жизни» (The Book of Life) происходят в фантастическом, невероятно красочном мире, где живет юноша по имени Маноло. События в его жизни складываются таким образом, что он вынужден разрываться между ожиданиями его семьи и желаниями его сердца. Прежде чем выбрать тот путь, который станет его судьбой, герой мультфильма «Книга жизни» отправляется в невероятное путешествие через удивительные миры, где ему предстоит встретиться со своими самыми большими страхами и опасениями.
Файл
Качество: BDRip (720p)
Видео: MPEG-4 AVC, 6530 Кбит/с, 1280x536
Аудио: Русский (DTS, 6 ch, 768 Кбит/с), украинский (AC3, 6 ch, 448 Кбит/с), английский (DTS, 6 ch, 1509 Кбит/с), (AC3, 2 ch, 224 Кбит/с)
Размер: 6.33 ГБ
Продолжительность: 01:35:24
Перевод: Дублированный [лицензия]
Субтитры: Русские, английские, украинские

MI

General
Unique ID : 231306081144760926659802555345522031864 (0xAE03EE48E133AB0BB2AF46438F9A7CF8)
Complete name : The.Book.of.Life.2014.720p.BluRay.DTS.Rus.Ukr.2xEng.HDCLUB.mkv
Format : Matroska
Format version : Version 2
File size : 6.33 GiB
Duration : 1h 35mn
Overall bit rate : 9 493 Kbps
Movie name : The Book of Life (2014) - Release for HDCLUB
Encoded date : UTC 2015-04-17 18:11:55
Writing application : mkvmerge v3.4.0 ('Rapunzel') built on May 15 2010 09:38:20
Writing library : libebml v0.8.0 + libmatroska v0.9.0
Video
ID : 1
Format : AVC
Format/Info : Advanced Video Codec
Format profile : High@L4.1
Format settings, CABAC : Yes
Format settings, ReFrames : 12 frames
Codec ID : V_MPEG4/ISO/AVC
Duration : 1h 35mn
Bit rate : 6 387 Kbps
Width : 1 280 pixels
Height : 536 pixels
Display aspect ratio : 2.40:1
Frame rate mode : Constant
Frame rate : 23.976 fps
Color space : YUV
Chroma subsampling : 4:2:0
Bit depth : 8 bits
Scan type : Progressive
Bits/(Pixel*Frame) : 0.388
Stream size : 4.26 GiB (67%)
Title : The Book of Life (2014) - Release for HDCLUB
Writing library : x264 core 142 r2491kMod 24e4fed
Encoding settings : cabac=1 / ref=12 / deblock=1:-3:-3 / analyse=0x3:0x133 / me=umh / subme=10 / psy=1 / fade_compensate=0.00 / psy_rd=0.62:0.00 / mixed_ref=1 / me_range=24 / chroma_me=1 / trellis=2 / 8x8dct=1 / cqm=0 / deadzone=21,11 / fast_pskip=0 / chroma_qp_offset=-2 / threads=12 / lookahead_threads=2 / sliced_threads=0 / nr=0 / decimate=0 / interlaced=0 / bluray_compat=0 / constrained_intra=0 / fgo=0 / bframes=9 / b_pyramid=2 / b_adapt=2 / b_bias=0 / direct=3 / weightb=1 / open_gop=0 / weightp=2 / keyint=250 / keyint_min=23 / scenecut=40 / intra_refresh=0 / rc=crf / mbtree=0 / crf=14.6000 / qcomp=0.70 / qpmin=0 / qpmax=69 / qpstep=4 / ip_ratio=1.30 / pb_ratio=1.20 / aq=1:1.10
Language : English
Default : Yes
Forced : No
Audio #1
ID : 2
Format : DTS
Format/Info : Digital Theater Systems
Mode : 16
Format settings, Endianness : Big
Codec ID : A_DTS
Duration : 1h 35mn
Bit rate mode : Constant
Bit rate : 768 Kbps
Channel(s) : 6 channels
Channel positions : Front: L C R, Side: L R, LFE
Sampling rate : 48.0 KHz
Bit depth : 24 bits
Compression mode : Lossy
Stream size : 524 MiB (8%)
Title : DTS 5.1 @ 768 kbps - DUB, Blu-ray EUR
Language : Russian
Default : Yes
Forced : No
Audio #2
ID : 3
Format : AC-3
Format/Info : Audio Coding 3
Mode extension : CM (complete main)
Format settings, Endianness : Big
Codec ID : A_AC3
Duration : 1h 35mn
Bit rate mode : Constant
Bit rate : 448 Kbps
Channel(s) : 6 channels
Channel positions : Front: L C R, Side: L R, LFE
Sampling rate : 48.0 KHz
Bit depth : 16 bits
Compression mode : Lossy
Stream size : 306 MiB (5%)
Title : AC3 5.1 @ 448 kbps - DUB, Blu-ray EUR
Language : Ukrainian
Default : No
Forced : No
Audio #3
ID : 4
Format : DTS
Format/Info : Digital Theater Systems
Mode : 16
Format settings, Endianness : Big
Codec ID : A_DTS
Duration : 1h 35mn
Bit rate mode : Constant
Bit rate : 1 509 Kbps
Channel(s) : 6 channels
Channel positions : Front: L C R, Side: L R, LFE
Sampling rate : 48.0 KHz
Bit depth : 24 bits
Compression mode : Lossy
Delay relative to video : 11ms
Stream size : 1.01 GiB (16%)
Title : DTS 5.1 @ 1536 kbps
Language : English
Default : No
Forced : No
Audio #4
ID : 5
Format : AC-3
Format/Info : Audio Coding 3
Mode extension : CM (complete main)
Format settings, Endianness : Big
Codec ID : A_AC3
Duration : 1h 35mn
Bit rate mode : Constant
Bit rate : 192 Kbps
Channel(s) : 2 channels
Channel positions : Front: L R
Sampling rate : 48.0 KHz
Bit depth : 16 bits
Compression mode : Lossy
Stream size : 131 MiB (2%)
Title : AC3 2.0 @ 224 kbps - Audio Commentary by Director Jorge R. Gutierrez
Language : English
Default : No
Forced : No
Text #1
ID : 6
Format : UTF-8
Codec ID : S_TEXT/UTF8
Codec ID/Info : UTF-8 Plain Text
Title : Forced, iTunes
Language : Russian
Default : Yes
Forced : No
Text #2
ID : 7
Format : UTF-8
Codec ID : S_TEXT/UTF8
Codec ID/Info : UTF-8 Plain Text
Title : iTunes
Language : Russian
Default : No
Forced : No
Text #3
ID : 8
Format : UTF-8
Codec ID : S_TEXT/UTF8
Codec ID/Info : UTF-8 Plain Text
Title : iTunes
Language : Ukrainian
Default : No
Forced : No
Text #4
ID : 9
Format : UTF-8
Codec ID : S_TEXT/UTF8
Codec ID/Info : UTF-8 Plain Text
Title : Forced
Language : English
Default : No
Forced : No
Text #5
ID : 10
Format : UTF-8
Codec ID : S_TEXT/UTF8
Codec ID/Info : UTF-8 Plain Text
Language : English
Default : No
Forced : No
Text #6
ID : 11
Format : UTF-8
Codec ID : S_TEXT/UTF8
Codec ID/Info : UTF-8 Plain Text
Title : SDH
Language : English
Default : No
Forced : No
Menu
00:00:00.000 : en:00:00:00.000
00:02:58.053 : en:00:02:58.053
00:05:39.631 : en:00:05:39.631
00:08:35.014 : en:00:08:35.014
00:12:08.478 : en:00:12:08.478
00:15:07.698 : en:00:15:07.698
00:19:24.246 : en:00:19:24.246
00:22:20.089 : en:00:22:20.089
00:26:08.150 : en:00:26:08.150
00:28:59.571 : en:00:28:59.571
00:33:02.147 : en:00:33:02.147
00:37:25.952 : en:00:37:25.952
00:41:07.090 : en:00:41:07.090
00:43:14.634 : en:00:43:14.634
00:47:02.486 : en:00:47:02.486
00:50:53.050 : en:00:50:53.050
00:53:13.232 : en:00:53:13.232
00:56:30.220 : en:00:56:30.220
01:00:16.279 : en:01:00:16.279
01:03:57.792 : en:01:03:57.792
01:06:48.379 : en:01:06:48.379
01:09:09.896 : en:01:09:09.896
01:11:52.016 : en:01:11:52.016
01:15:53.215 : en:01:15:53.215
01:18:52.770 : en:01:18:52.770
01:21:13.410 : en:01:21:13.410
01:23:33.842 : en:01:23:33.842
01:27:11.893 : en:01:27:11.893

Скриншоты



Релиз от:
[Профиль] [ЛС]
Кто просматривает тему:

Форум Тема Автор Размер
Ужасы и мистика 81 миля (Стивен Кинг) [2014, Ужасы, аудиокнига, MP3, 128 kbps, Олег Воротилин] Magnat 101 MB
Ужасы и мистика N. (Кинг Стивен) [2014, Мистика, аудиокнига, MP3, 128 kbps, vaska_hulya] Magnat 155 MB
Ужасы и мистика Splatterpunk stories 4 (Шокирующие истории 4) - Последняя глава (Эдвард Ли, Ричард Лаймон и др.) [2015, Ужасы, аудиокнига, MP3, 192kbps, Владимир Князев] Magnat 921 MB
Фантастика и фэнтези Warhammer 40000. ...И вечный бой. Рассказы (07 из 12) (Френч Джон, Ральфс Мэтт, Торп Гэв и др.) [2015, Фантастика, аудиокнига, MP3, 128 kbps, Gel2323] Magnat 605 MB
Фантастика и фэнтези Warhammer 40000. Ересь Хоруса. Книга 22. Шрамы (Райт Крис) [2015, Фантастика, аудиокнига, MP3, 128 kbps, Gel2323] Magnat 633 MB
Программы [Разное] Поиск в книгах v1.4 [Android 4.0, RUS + ENG] TorrentFilm 28 MB
Зарубежные мультсериалы Аватар: Легенда о Корре / The Legend of Korra (1-3 сезон полные: 39 серий) (Книга 1-3) (Michael Dante DiMartino / Майкл Данте ДиМартино) [2012-2014 г., мультсериал, приключения, фэнтези, WEB-DLRip]... sergej644 11.16 GB
Путешествия и приключения Аку-аку: Тайна острова Пасхи (Тур Хейердал) [2010, Путешествия, аудиокнига, MP3, 96 kbps, Елена Халатова] Magnat 668 MB
Показать сообщения:    

Текущее время: Сегодня 06:30

Часовой пояс: GMT



Вы не можете начинать темы
Вы не можете отвечать на сообщения
Вы не можете редактировать свои сообщения
Вы не можете удалять свои сообщения
Вы не можете голосовать в опросах
Вы не можете прикреплять файлы к сообщениям
Вы не можете скачивать файлы