Книга джунглей / The Jungle Book (2016) BDRemux 1080p от ExKinoRay | Лицензия

 
Автор Сообщение

Russian Mafia ®

Пол:

Стаж: 2 года 3 месяца

Сообщений: 4249



Награды: 10 (Подробнее)

Mega Seeder 4 (Количество: 1) Top Releaser 2 (Количество: 1) Top Releaser 3 (Количество: 1)
Торрент-статистика

Создавать темы 28-Авг-2016 06:03

[Цитировать]

Информация о фильме
Название: Книга джунглей
Оригинальное название: The Jungle Book
Год выхода: 2016
Жанр: Фэнтези, драма, приключения
Режиссер: Джон Фавро
В ролях: Нил Сети, Билл Мюррэй, Бен Кингсли, Идрис Эльба, Лупита Нионго, Скарлетт Йоханссон, Джанкарло Эспозито, Кристофер Уокен, Гарри Шендлинг, Брайтон Роуз, Эмджей Энтони, Макс Фавро, Хлоя Хехтер, Эшер Блинкофф, Нокс Ганьон, Саша Шрайбер, Кай Шрайбер, Джон Фавро, Сэм Рэйми, Расселл Питерс
О фильме:
Эта удивительная история повествует о маленьком мальчике, которого вырастили в глухом лесу говорящие животные. Он воспитывался в волчьей стае и постигал законы джунглей под присмотром мудрой пантеры Багиры. Однако, всевозрастающая угроза со стороны тигра Шерхана вынуждает его покинуть родной дом и отправиться в ближайшую деревню к людям. Ему предстоит пройти длинный путь к познанию своего прошлого, преисполненный опасными приключениями и захватывающими встречами с медведем Балу, питоном Каа, обезьяним королем Луи и другими лесными жителями.

Страна: США
Студия: Walt Disney Pictures
Продолжительность: 01:45:54
Перевод: Дублированный | Лицензия Blu-Ray CEE
Файл
Кодек: MPEG-4
Качество: BDRemux 1080p
Видео: 1920x1080, 29.8 Mbit/s, 23.976 fps
Звук:
Аудио #01: 48 kHz, AC3, 5.1, 640 Kbps | Дублированный | Лицензия |
Аудио #02: 48 kHz, DTS-HD MA, 7.1, 5356 kbps | Оригинал |
Субтитры: Русские (forced,full), английские (srt,SDH)

MI

General
Unique ID : 197394015481147758622613760164251021695 (0x9480B45BCD7DA17FB5CB0851152FB17F)
Complete name : G:VideoThe.Jungle.Book.2016.BDREMUX.1080p.ExKinoRay.mkv
Format : Matroska
Format version : Version 4 / Version 2
File size : 26.5 GiB
Duration : 1 h 45 min
Overall bit rate mode : Variable
Overall bit rate : 35.8 Mb/s
Movie name : The.Jungle.Book.2016.BDREMUX.1080p.ExKinoRay
Encoded date : UTC 2016-08-28 01:59:05
Writing application : mkvmerge v8.3.0 ('Over the Horizon') 64bit
Writing library : libebml v1.3.1 + libmatroska v1.4.2
Video
ID : 1
Format : AVC
Format/Info : Advanced Video Codec
Format profile : High@L4.1
Format settings, CABAC : Yes
Format settings, ReFrames : 4 frames
Codec ID : V_MPEG4/ISO/AVC
Duration : 1 h 45 min
Bit rate mode : Variable
Bit rate : 29.8 Mb/s
Maximum bit rate : 32.0 Mb/s
Width : 1 920 pixels
Height : 1 080 pixels
Display aspect ratio : 16:9
Frame rate mode : Constant
Frame rate : 23.976 (24000/1001) FPS
Color space : YUV
Chroma subsampling : 4:2:0
Bit depth : 8 bits
Scan type : Progressive
Bits/(Pixel*Frame) : 0.599
Stream size : 22.0 GiB (83%)
Language : English
Default : Yes
Forced : No
Audio #1
ID : 2
Format : AC-3
Format/Info : Audio Coding 3
Mode extension : CM (complete main)
Format settings, Endianness : Big
Codec ID : A_AC3
Duration : 1 h 45 min
Bit rate mode : Constant
Bit rate : 640 kb/s
Channel(s) : 6 channels
Channel positions : Front: L C R, Side: L R, LFE
Sampling rate : 48.0 kHz
Frame rate : 31.250 FPS (1536 spf)
Compression mode : Lossy
Stream size : 485 MiB (2%)
Title : DUB [Blu-Ray CEE]
Language : Russian
Default : Yes
Forced : No
Audio #2
ID : 3
Format : DTS
Format/Info : Digital Theater Systems
Format profile : MA / Core
Mode : 16
Format settings, Endianness : Big
Codec ID : A_DTS
Duration : 1 h 45 min
Bit rate mode : Variable / Constant
Bit rate : 5 356 kb/s / 1 509 kb/s
Channel(s) : 8 channels / 6 channels
Channel positions : Front: L C R, Side: L R, Back: L R, LFE / Front: L C R, Side: L R, LFE
Sampling rate : 48.0 kHz
Frame rate : 93.750 FPS (512 spf)
Bit depth : 24 bits
Compression mode : Lossless / Lossy
Stream size : 3.96 GiB (15%)
Title : Original
Language : English
Default : No
Forced : No
Text #1
ID : 4
Format : UTF-8
Codec ID : S_TEXT/UTF8
Codec ID/Info : UTF-8 Plain Text
Duration : 9 min
Bit rate : 1 b/s
Count of elements : 3
Stream size : 132 Bytes (0%)
Title : Forced [iTunes]
Language : Russian
Default : Yes
Forced : No
Text #2
ID : 5
Format : UTF-8
Codec ID : S_TEXT/UTF8
Codec ID/Info : UTF-8 Plain Text
Duration : 1 h 44 min
Bit rate : 60 b/s
Count of elements : 1107
Stream size : 46.0 KiB (0%)
Title : Full [iTunes]
Language : Russian
Default : No
Forced : No
Text #3
ID : 6
Format : UTF-8
Codec ID : S_TEXT/UTF8
Codec ID/Info : UTF-8 Plain Text
Duration : 1 h 44 min
Bit rate : 44 b/s
Count of elements : 1218
Stream size : 34.1 KiB (0%)
Title : Full
Language : English
Default : No
Forced : No
Text #4
ID : 7
Format : UTF-8
Codec ID : S_TEXT/UTF8
Codec ID/Info : UTF-8 Plain Text
Duration : 1 h 44 min
Bit rate : 50 b/s
Count of elements : 1410
Stream size : 38.4 KiB (0%)
Title : SDH
Language : English
Default : No
Forced : No
Menu
00:00:00.000 : en:Chapter 01
00:00:48.215 : en:Chapter 02
00:05:15.315 : en:Chapter 03
00:09:02.459 : en:Chapter 04
00:12:42.178 : en:Chapter 05
00:16:34.452 : en:Chapter 06
00:21:20.029 : en:Chapter 07
00:27:15.133 : en:Chapter 08
00:35:04.144 : en:Chapter 09
00:43:21.724 : en:Chapter 10
00:48:05.132 : en:Chapter 11
00:53:29.248 : en:Chapter 12
00:58:03.271 : en:Chapter 13
01:05:46.442 : en:Chapter 14
01:10:35.523 : en:Chapter 15
01:17:01.325 : en:Chapter 16
01:20:48.927 : en:Chapter 17
01:24:46.540 : en:Chapter 18
01:30:32.969 : en:Chapter 19
01:35:53.206 : en:Chapter 20

Скриншоты

Релиз от: Автор релиза:
[Профиль] [ЛС]
Показать сообщения:    

Текущее время: Сегодня 07:29

Часовой пояс: GMT



Вы не можете начинать темы
Вы не можете отвечать на сообщения
Вы не можете редактировать свои сообщения
Вы не можете удалять свои сообщения
Вы не можете голосовать в опросах
Вы не можете прикреплять файлы к сообщениям
Вы не можете скачивать файлы