Клятва / Eiðurinn / The Oath (2016) BDRip-AVC | iTunes

 
Автор Сообщение

Swager ®

Пол:

Стаж: 2 года 2 месяца

Сообщений: 1378



Награды: 4 (Подробнее)

За внесенный вклад в развитие сайта (Количество: 1) Mega Seeder 1 (Количество: 1) Mega Seeder 2 (Количество: 1)
Торрент-статистика

Создавать темы 12-Окт-2017 09:56

[Цитировать]

Клятва / Eiðurinn / The Oath
-

Год выпуска: 2016
Страна: Исландия
Производство: RVK Studios
Жанр: Триллер, драма, криминал
Режиссёр: Бальтасар Кормакур
В ролях: Бальтасар Кормакур, Гисли Гардарссон, Гера Хильмарсдоттир, Маргарет Бьярнадоттир, Ингвар Сигурдссон, Торстейн Бахманн, Гудрун Арнардоттир
Перевод: Профессиональный многоголосый | iTunes
Субтитры: Русские
Реклама: Отсутствует
Описание: Успешный кардиохирург Финнур наслаждается жизнью благополучного европейца, чья жизнь — перманентная зона комфорта. У него хорошая работа, огромный особняк, а всё свободное время он проводит, занимаясь велоспортом. Выйти из этой зоны комфорта ему придётся, когда он узнает, что его старшая дочь ведёт асоциальный образ жизни: не учится, не работает, а папины деньги тратит на наркотики. Финнур решает наказать тех, кто затащил его дочь на социальное дно. И никакая клятва Гиппократа не остановит обезумевшего врача...

Качество: BDRip-AVC
Продолжительность: 01:43:56
Формат: MKV
Видео кодек: MPEG-4 AVC
Аудио кодек: AC3
Видео: 1024x428 (2,40:1), 24.000 fps, x264 ~1410 kbps avg, 0.134 bit/pixel
Аудио: 48 kHz, AC3 Dolby Digital, 3/2 (L,C,R,l,r) + LFE ch, ~384.00 kbps avg | RUS (iTunes)
Дата премьеры (мир): 9 сентября 2016
Дата премьеры (РФ): 17 августа 2017, «Cinema Prestige»

MediaInfo

Общее
Уникальный идентификатор : 175108025992859229896296335274218175397 (0x83BC943E56CCCA35AE8E9F8D20513BA5)
Полное имя : E:OlLanDGroupEidurinn.2016.BDRip(AVC).OlLanDGroup.mkv
Формат : Matroska
Версия формата : Version 2
Размер файла : 1,30 Гбайт
Продолжительность : 1 ч. 43 м.
Общий поток : 1792 Кбит/сек
Название фильма : Eidurinn.2016 #TorpedoUK#
Дата кодирования : UTC 2017-10-12 04:09:30
Программа кодирования : mkvmerge v7.8.0 ('River Man') 32bit built on Apr 3 2015 12:11:22
Библиотека кодирования : libebml v1.3.1 + libmatroska v1.4.2
Видео
Идентификатор : 1
Формат : AVC
Формат/Информация : Advanced Video Codec
Профиль формата : High@L4.1
Параметр CABAC формата : Да
Параметр ReFrames формата : 10 кадров
Идентификатор кодека : V_MPEG4/ISO/AVC
Продолжительность : 1 ч. 43 м.
Битрейт : 1410 Кбит/сек
Ширина : 1024 пикселя
Высота : 428 пикселей
Соотношение сторон : 2,40:1
Режим частоты кадров : Постоянный
Частота кадров : 24,000 кадра/сек
Цветовое пространство : YUV
Субдискретизация насыщенности : 4:2:0
Битовая глубина : 8 бит
Тип развёртки : Прогрессивная
Бит/(Пиксели*Кадры) : 0.134
Размер потока : 1020 Мбайт (77%)
Библиотека кодирования : x264 core 146 r2538 121396c
Настройки программы : cabac=1 / ref=10 / deblock=1:-3:-3 / analyse=0x3:0x133 / me=umh / subme=11 / psy=1 / psy_rd=1.00:0.07 / mixed_ref=1 / me_range=48 / chroma_me=1 / trellis=2 / 8x8dct=1 / cqm=0 / deadzone=21,11 / fast_pskip=0 / chroma_qp_offset=-3 / threads=6 / lookahead_threads=1 / sliced_threads=0 / nr=0 / decimate=0 / interlaced=0 / bluray_compat=0 / constrained_intra=0 / bframes=10 / b_pyramid=2 / b_adapt=2 / b_bias=0 / direct=3 / weightb=1 / open_gop=0 / weightp=2 / keyint=240 / keyint_min=23 / scenecut=40 / intra_refresh=0 / rc_lookahead=40 / rc=2pass / mbtree=0 / bitrate=1410 / ratetol=1.0 / qcomp=0.60 / qpmin=0 / qpmax=69 / qpstep=4 / cplxblur=20.0 / qblur=0.5 / vbv_maxrate=50000 / vbv_bufsize=62500 / nal_hrd=none / filler=0 / ip_ratio=1.40 / pb_ratio=1.30 / aq=1:1.00
Язык : English
Default : Да
Forced : Нет
Аудио
Идентификатор : 2
Формат : AC-3
Формат/Информация : Audio Coding 3
Расширение режима : CM (complete main)
Параметр Endianness формата : Big
Идентификатор кодека : A_AC3
Продолжительность : 1 ч. 43 м.
Вид битрейта : Постоянный
Битрейт : 384 Кбит/сек
Каналы : 6 каналов
Расположение каналов : Front: L C R, Side: L R, LFE
Частота : 48,0 КГц
Частота кадров : 31,250 кадров/сек (1536 spf)
Битовая глубина : 16 бит
Метод сжатия : С потерями
Размер потока : 286 Мбайт (21%)
Заголовок : iTunes
Язык : Russian
Default : Да
Forced : Нет
Текст
Идентификатор : 3
Формат : UTF-8
Идентификатор кодека : S_TEXT/UTF8
Идентификатор кодека/Информация : UTF-8 Plain Text
Язык : Russian
Default : Нет
Forced : Нет
Меню
00:00:00.000 : en:00:00:00.000
00:08:50.375 : en:00:08:50.375
00:16:55.500 : en:00:16:55.500
00:27:53.458 : en:00:27:53.458
00:34:31.041 : en:00:34:31.041
00:42:36.541 : en:00:42:36.541
00:52:17.208 : en:00:52:17.208
00:59:33.250 : en:00:59:33.250
01:09:01.208 : en:01:09:01.208
01:18:03.291 : en:01:18:03.291
01:26:04.333 : en:01:26:04.333
01:35:07.500 : en:01:35:07.500
01:40:52.041 : en:01:40:52.041

Скриншоты



[Профиль] [ЛС]
Показать сообщения:    

Текущее время: Сегодня 12:48

Часовой пояс: GMT



Вы не можете начинать темы
Вы не можете отвечать на сообщения
Вы не можете редактировать свои сообщения
Вы не можете удалять свои сообщения
Вы не можете голосовать в опросах
Вы не можете прикреплять файлы к сообщениям
Вы не можете скачивать файлы