Клятва / Eiðurinn (2016) BDRip-AVC | iTunes

 
Автор Сообщение

Swager ®

Пол:

Стаж: 2 года

Сообщений: 907



Награды: 3 (Подробнее)

Mega Seeder 2 (Количество: 1) Top Releaser 2 (Количество: 1) Mega Seeder 1 (Количество: 1)
Торрент-статистика

Создавать темы 12-Окт-2017 09:37

[Цитировать]

Информация о фильме
Наименование: Клятва
Оригинальное наименование: Eidurinn
Год выхода: 2016
Произведено: Исландия
Жанр: триллер, драма, криминал
Режиссер постановщик: Бальтасар Кормакур
В главных ролях: Гера Хилмарсдоттир, Бальтасар Кормакур, Гисли Орн Гардарссон, Ингвар Эггерт Сигюрдссон, Торстейнн Бахман, Джои Йоханнссон, Торстейнн Гуннарссон, Сигрун Эдда Бьёрнсдоуттир, Маргрет Бьярнадоттир, Тростур Лео Гуннарссон
О фильме :
В жизни известного хирурга Финнура наступила черная полоса - он подозревает, что его старшая дочь Анна попала в дурную компанию, что ее новый бойфренд Оттар, на котором клейма негде ставить, приторговывает наркотиками и тянет дочь в пропасть. Необходимо предпринимать срочные меры - сделать всё, чтобы отвадить подонка от дочери. Сказано - сделано: и в доме у Оттара полиция находит мешок с кокаином, сам он арестован. Увы, парня быстро отпускают, а весь свой убыток - с процентами - он перекладывает на Финнура, угрожая пустить Анну по рукам. В полиции врача слушать не хотят, и он приходит к выводу, что придется на время забыть о клятве Гиппократа. Слишком поздно Финнур поймет, что у вступившего на путь насилия обратной дороги не будет...

Выпущено: Исландия
Студия: RVK Studios, RVK Studios
Продолжительность: 01:43:57
Перевод: Профессиональный (многоголосый, закадровый) | iTunes
Файл
Формат: MKV
Качество: BDRip-AVC (Blu-Ray Remux 1080p)
Видео: MPEG-4 AVC, 768x320, ~ 929 Кбит/с
Аудио: AAC-LC, 2 ch, ~86 Кбит/с
Субтитры: Русские

MI

Общее
Уникальный идентификатор : 220904341039037163545812235534128016084 (0xA630A0E70765B0E08D427B152E6A6AD4)
Полное имя : D:MOVIESKljatva-2016.ExKinoRay.mkv
Формат : Matroska
Версия формата : Version 4 / Version 2
Размер файла : 755 Мбайт
Продолжительность : 1 ч. 43 м.
Общий поток : 1015 Кбит/сек
Дата кодирования : UTC 2017-10-12 08:35:45
Программа кодирования : mkvmerge v15.0.0 ('Duel with the Devil') 64-bit
Библиотека кодирования : libebml v1.3.5 + libmatroska v1.4.5
Видео
Идентификатор : 1
Формат : AVC
Формат/Информация : Advanced Video Codec
Профиль формата : High@L4.1
Параметр CABAC формата : Да
Параметр RefFrames формата : 10 кадров
Идентификатор кодека : V_MPEG4/ISO/AVC
Продолжительность : 1 ч. 43 м.
Битрейт : 929 Кбит/сек
Ширина : 768 пикселей
Высота : 320 пикселей
Соотношение сторон : 2,40:1
Режим частоты кадров : Постоянный
Частота кадров : 24,000 кадра/сек
Цветовое пространство : YUV
Субдискретизация насыщенности : 4:2:0
Битовая глубина : 8 бит
Тип развёртки : Прогрессивная
Бит/(Пиксели*Кадры) : 0.158
Размер потока : 689 Мбайт (91%)
Библиотека кодирования : x264 core 152 r2851kMod ba24899
Настройки программы : cabac=1 / ref=10 / deblock=1:-1:-1 / analyse=0x3:0x113 / me=umh / subme=11 / psy=1 / fade_compensate=0.00 / psy_rd=1.00:0.02 / mixed_ref=1 / me_range=32 / chroma_me=1 / trellis=2 / 8x8dct=1 / cqm=0 / deadzone=21,11 / fast_pskip=0 / chroma_qp_offset=-3 / threads=6 / lookahead_threads=1 / sliced_threads=0 / nr=0 / decimate=0 / interlaced=0 / bluray_compat=0 / constrained_intra=0 / bframes=10 / b_pyramid=2 / b_adapt=2 / b_bias=0 / direct=3 / weightb=1 / open_gop=0 / weightp=2 / keyint=240 / keyint_min=23 / scenecut=40 / intra_refresh=0 / rc_lookahead=40 / rc=2pass / mbtree=1 / bitrate=929 / ratetol=1.0 / qcomp=0.60 / qpmin=0 / qpmax=69 / qpstep=4 / cplxblur=20.0 / qblur=0.5 / vbv_maxrate=50000 / vbv_bufsize=62500 / nal_hrd=none / filler=0 / ip_ratio=1.40 / aq=3:1.00
Default : Да
Forced : Нет
Аудио
Идентификатор : 2
Формат : AAC
Формат/Информация : Advanced Audio Codec
Профиль формата : LC
Идентификатор кодека : A_AAC
Продолжительность : 1 ч. 43 м.
Битрейт : 86,0 Кбит/сек
Каналы : 2 канала
Расположение каналов : Front: L R
Частота : 48,0 КГц
Частота кадров : 46,875 кадров/сек (1024 SPF)
Метод сжатия : С потерями
Задержка видео : 9 мс.
Размер потока : 63,8 Мбайт (8%)
Default : Да
Forced : Нет
Текст
Идентификатор : 3
Формат : UTF-8
Идентификатор кодека : S_TEXT/UTF8
Идентификатор кодека/Информация : UTF-8 Plain Text
Продолжительность : 1 ч. 40 м.
Битрейт : 54 бит/сек
ElementCount : 902
Размер потока : 39,7 Кбайт (0%)
Язык : Russian
Default : Нет
Forced : Нет
Меню
00:00:00.000 : en:00:00:00.000
00:08:50.375 : en:00:08:50.375
00:16:55.500 : en:00:16:55.500
00:27:53.458 : en:00:27:53.458
00:34:31.041 : en:00:34:31.041
00:42:36.541 : en:00:42:36.541
00:52:17.208 : en:00:52:17.208
00:59:33.250 : en:00:59:33.250
01:09:01.208 : en:01:09:01.208
01:18:03.291 : en:01:18:03.291
01:26:04.333 : en:01:26:04.333
01:35:07.500 : en:01:35:07.500
01:40:52.041 : en:01:40:52.041

Скриншоты


[Профиль] [ЛС]
Показать сообщения:    

Текущее время: Сегодня 14:29

Часовой пояс: GMT



Вы не можете начинать темы
Вы не можете отвечать на сообщения
Вы не можете редактировать свои сообщения
Вы не можете удалять свои сообщения
Вы не можете голосовать в опросах
Вы не можете прикреплять файлы к сообщениям
Вы не можете скачивать файлы