Ключ Саламандры (Александр Якимчук) [2011, Россия, США, Нидерланды, боевик, приключения, BDRip 720p] Original Rus

 
Автор Сообщение

TorrentFilm ®

Пол:

Стаж: 2 года

Сообщений: 7741



Награды: Нет

Торрент-статистика

Создавать темы 01-Янв-2016 00:08

[Цитировать]

Ключ Саламандры
Страна: Россия, США, Нидерланды
Студия: Арсенал-ТВ, The 6th Element
Жанр: боевик, приключения
Год выпуска: 2011
Продолжительность: 01:43:47
Перевод: Не требуется
Cубтитры: нет
Оригинальная аудиодорожка: русский
Режиссер: Александр Якимчук
В ролях: Рутгер Хауэр, Майкл Мэдсен, Федор Емельяненко, Павел Делонг, Ким Бо Сунг, Алексей Горбунов, Валерий Николаев, Валерий Соловьев, Олег Чернов, Анна Геллер
Описание: «… Сегодня мы получили бесценный дар — эликсир жизни…» — гласит сенсационное заявление главы корпорации «Фарм-Лайн» в Бангкоке. Чудотворный препарат появился благодаря исследованиям свойств саламандры обновлять клетки… «Самоубийство конгрессмена! Восьмой случай за месяц! Эпидемия самоубийств!», — так звучат заголовки газет. Один из лучших полицейских тайской столицы берется за расследование череды таинственных смертей…
На острове в Юго-Восточной Азии пропала Международная научная экспедиция. Последнее сообщение, полученное от ученых, говорит об угрозе глобальной катастрофы. Спасательная группа находит на острове следы лаборатории, в которой проводили опыты над животными и людьми… Что объединяет все эти события? ? И почему ключ к разгадке надо искать в непроходимых азиатских джунглях…
Сэмпл: http://multi-up.com/770573
Тип релиза: BDRip 720p
Контейнер: MKV
Видео: MPEG4 Video (H264), 1280x544, 24fps, 4 717 Kbps
Аудио: Russian, AC3, 48000Hz, 6ch, 640 Kbps

MediaInfo

General
Unique ID : 192585133417829735665690825200083406794 (0x90E28C2AE1AEF604A8F942E982000FCA)
Complete name : E:\Torrent\Ключ Саламандры.mkv
Format : Matroska
Format version : Version 2
File size : 3.96 GiB
Duration : 1h 43mn
Overall bit rate : 5 465 Kbps
Movie name : Ключ Саламандры - created with BDtoAVCHD v1.7.9
Encoded date : UTC 2012-10-05 13:08:30
Writing application : mkvmerge v5.8.0 ('No Sleep / Pillow') built on Sep 2 2012 15:37:04
Writing library : libebml v1.2.3 + libmatroska v1.3.0
Video
ID : 1
Format : AVC
Format/Info : Advanced Video Codec
Format profile : High@L4.1
Format settings, CABAC : Yes
Format settings, ReFrames : 5 frames
Codec ID : V_MPEG4/ISO/AVC
Duration : 1h 43mn
Bit rate : 4 717 Kbps
Width : 1 280 pixels
Height : 544 pixels
Display aspect ratio : 2.35:1
Frame rate mode : Constant
Frame rate : 24.000 fps
Color space : YUV
Chroma subsampling : 4:2:0
Bit depth : 8 bits
Scan type : Progressive
Bits/(Pixel*Frame) : 0.282
Stream size : 3.42 GiB (86%)
Writing library : x264 core 128 r2216+2 1a27dbb
Encoding settings : cabac=1 / ref=5 / deblock=1:-1:-1 / analyse=0x3:0x113 / me=umh / subme=8 / psy=1 / psy_rd=1.00:0.15 / mixed_ref=1 / me_range=16 / chroma_me=1 / trellis=1 / 8x8dct=1 / cqm=0 / deadzone=21,11 / fast_pskip=1 / chroma_qp_offset=-3 / threads=3 / lookahead_threads=1 / sliced_threads=0 / nr=0 / decimate=1 / interlaced=0 / bluray_compat=0 / constrained_intra=0 / bframes=3 / b_pyramid=2 / b_adapt=2 / b_bias=0 / direct=3 / weightb=1 / open_gop=1 / weightp=2 / keyint=240 / keyint_min=24 / scenecut=40 / intra_refresh=0 / rc_lookahead=50 / rc=crf / mbtree=1 / crf=16.0 / qcomp=0.60 / qpmin=0 / qpmax=69 / qpstep=4 / ip_ratio=1.40 / aq=1:1.00
Default : Yes
Forced : No
Color primaries : BT.709
Transfer characteristics : BT.709
Matrix coefficients : BT.709
Audio
ID : 2
Format : AC-3
Format/Info : Audio Coding 3
Mode extension : CM (complete main)
Format settings, Endianness : Big
Codec ID : A_AC3
Duration : 1h 43mn
Bit rate mode : Constant
Bit rate : 640 Kbps
Channel(s) : 6 channels
Channel positions : Front: L C R, Side: L R, LFE
Sampling rate : 48.0 KHz
Bit depth : 16 bits
Compression mode : Lossy
Stream size : 475 MiB (12%)
Language : Russian
Default : Yes
Forced : No
Menu
00:00:00.000 : ru:1
00:05:34.917 : ru:2
00:12:13.708 : ru:3
00:17:34.792 : ru:4
00:21:45.417 : ru:5
00:29:47.917 : ru:6
00:37:38.917 : ru:7
00:46:50.375 : ru:8
00:55:27.250 : ru:9
01:02:21.125 : ru:10
01:06:21.625 : ru:11
01:10:11.667 : ru:12
01:12:53.375 : ru:13
01:16:26.542 : ru:14
01:20:19.417 : ru:15
01:30:12.792 : ru:16
01:34:54.667 : ru:17
01:38:49.458 : ru:18

Скриншоты

[Профиль] [ЛС]
Кто просматривает тему:

Показать сообщения:    

Текущее время: Сегодня 22:41

Часовой пояс: GMT



Вы не можете начинать темы
Вы не можете отвечать на сообщения
Вы не можете редактировать свои сообщения
Вы не можете удалять свои сообщения
Вы не можете голосовать в опросах
Вы не можете прикреплять файлы к сообщениям
Вы не можете скачивать файлы