Ключ от преисподней / Baskin (2015) HDRip | D | Line

 
Автор Сообщение

BOSS ®

Пол:

Стаж: 2 года 1 месяц

Сообщений: 3726

Откуда: ODESSA



Награды: 20 (Подробнее)

Mega Seeder 5 (Количество: 1) Top Keeper 2 (Количество: 1) Top Releaser 4 (Количество: 1)
Торрент-статистика

Создавать темы 16-Май-2016 18:48

[Цитировать]

Ключ от преисподней / Baskin
Страна: Турция США
Производство: Film Colony, Mo Film, XYZ Films
Год выпуска: 2015
Жанр: ужасы, фэнтези
Продолжительность: 01:36:47
Режиссер: Кан Эвренол
Авторы сценария: Огулчен Эрен Акай, Кан Эвренол, Чем Озудуру
В ролях: Гокем Касал, Эгун Куючу, Мухаррем Байрак, Фатих Доккёз, Сабахаттин Яакут, Мехмет Черрахоглу, Хаяти Читаклаш, Леман Севда Даричоглу
Описание: Пятеро брутальных копов сидели в ночной забегаловке. Обычный мужской треп — футбол, девушки, секс — прервал экстренный вызов. Группе приказали проверить заброшенный дом в лесу. Сели в патрульную машину и поехали. Привычное дело. Ежедневная рутина. Но не в этот раз. Полуразрушенный и пустой, на первый взгляд, дом оказался преддверием Ада, кишащим жуткими монстрами. И каждому из полицейских здесь уготованы чудовищные пытки, каждому — по грехам его…

Перевод: Профессиональный (полное дублирование) | чистый звук
Субтитры: нет-Качество: HDRip
Формат: АVI
Видео кодек: XviD
Аудио кодек: АС3
Видео: 720x304 (2.35:1), 24.000 fps, XviD ~1 599 kbps avg, 0.304 bit/pixel
Аудио: 48.0 kHz, AC3 Dolby Digital, 2/0 (L,R) ch, ~224 kbps
Дата премьеры (мир): 11 сентября 2015
Дата премьеры (РФ): 14 апреля 2016, «Cinema Prestige»

Media Info

General
Complete name : Klu4.ot.preispodnej.2015.D.HDRip.avi
Format : AVI
Format/Info : Audio Video Interleave
Overall bit rate : 1 835 Kbps
Writing application : VirtualDubMod 1.5.10.2 (build 2540/release)
Writing library : VirtualDubMod build 2540/release
Video
ID : 0
Format : MPEG-4 Visual
Format profile : Advanced Simple@L5
Format settings, BVOP : 2
Format settings, QPel : No
Format settings, GMC : No warppoints
Format settings, Matrix : Default (MPEG)
Codec ID : XVID
Codec ID/Hint : XviD
Bit rate : 1 599 Kbps
Width : 720 pixels
Height : 304 pixels
Display aspect ratio : 2.35:1
Frame rate : 24.000 fps
Color space : YUV
Chroma subsampling : 4:2:0
Bit depth : 8 bits
Scan type : Progressive
Compression mode : Lossy
Bits/(Pixel*Frame) : 0.304
Stream size : 9.87 MiB (87%)
Writing library : XviD 1.2.1 (UTC 2008-12-04)
Audio
ID : 1
Format : AC-3
Format/Info : Audio Coding 3
Mode extension : CM (complete main)
Format settings, Endianness : Big
Codec ID : 2000
Duration : 51s 750ms
Bit rate mode : Constant
Bit rate : 224 Kbps
Channel(s) : 2 channels
Channel positions : Front: L R
Sampling rate : 48.0 KHz
Compression mode : Lossy
Delay relative to video : 9ms
Stream size : 1.38 MiB (12%)
Alignment : Split accross interleaves
Interleave, duration : 42 ms (1.01 video frame)
Interleave, preload duration : 500 ms

Скриншоты

[Профиль] [ЛС]
Кто просматривает тему:

Показать сообщения:    

Текущее время: Сегодня 10:51

Часовой пояс: GMT



Вы не можете начинать темы
Вы не можете отвечать на сообщения
Вы не можете редактировать свои сообщения
Вы не можете удалять свои сообщения
Вы не можете голосовать в опросах
Вы не можете прикреплять файлы к сообщениям
Вы не можете скачивать файлы