Ключ от преисподней / Baskin (2015) WEB-DL 720p | L1

 
Автор Сообщение

Russian Mafia ®

Пол:

Стаж: 1 год 8 месяцев

Сообщений: 4257



Награды: 10 (Подробнее)

Mega Seeder 5 (Количество: 1) Top Releaser 2 (Количество: 1) Top Releaser 4 (Количество: 1)
Торрент-статистика

Создавать темы 10-Апр-2016 14:28

[Цитировать]

Информация о фильме
Название: Ключ от преисподней
Оригинальное название: Baskin
Год выхода: 2015
Жанр: ужасы, фэнтези
Режиссер: Can Evrenol
В ролях: Gorkem Kasal, Эргун Куйусу, Мухаррем Байрак, Fatih Dokgöz, Сабахаттин Якут, Mehmet Cerrahoglu, Хаяти Китаклар, Leman Sevda Daricioglu, Тугба Озкуль, Aslihan Erguvan
О фильме: Пятеро брутальных копов сидели в ночной забегаловке. Обычный мужской треп — футбол, девушки, секс — прервал экстренный вызов. Группе приказали проверить заброшенный дом в лесу. Сели в патрульную машину и поехали. Привычное дело. Ежедневная рутина. Но не в этот раз. Полуразрушенный и пустой, на первый взгляд, дом оказался преддверием Ада, кишащим жуткими монстрами. И каждому из полицейских здесь уготованы чудовищные пытки, каждому — по грехам его…

Выпущено: Турция, США / Film Colony, Mo Film, XYZ Films
Продолжительность: 01:36:47
Озвучивание: Любительское (одноголосое) [Хихикающий доктор]
Файл
Формат: MKV
Качество: WEB-DL 720p
Видео: MPEG-4 AVC, 4010 kb/s, 1280x532
Аудио: Russian: AC3, 192 kb/s (2 ch) / Turkish: AC3, 384 kb/s (6 ch)
Субтитры: English

MI

Format : Matroska
Format version : Version 2
File size : 3.05 GiB
Duration : 1h 36mn
Overall bit rate : 4 508 Kbps
Encoded date : UTC 2016-04-10 13:34:30
Writing application : mkvmerge v7.8.0 ('River Man') 32bit built on Apr 3 2015 12:11:22
Writing library : libebml v1.3.1 + libmatroska v1.4.2
Video
ID : 1
Format : AVC
Format/Info : Advanced Video Codec
Format profile : High@L3.1
Format settings, CABAC : No
Format settings, ReFrames : 2 frames
Codec ID : V_MPEG4/ISO/AVC
Duration : 1h 36mn
Bit rate mode : Constant
Bit rate : 4 010 Kbps
Width : 1 280 pixels
Height : 532 pixels
Display aspect ratio : 2.40:1
Frame rate mode : Constant
Frame rate : 24.000 fps
Color space : YUV
Chroma subsampling : 4:2:0
Bit depth : 8 bits
Scan type : Progressive
Bits/(Pixel*Frame) : 0.245
Stream size : 2.60 GiB (85%)
Language : English
Default : Yes
Forced : No
Color range : Limited
Color primaries : BT.709
Transfer characteristics : BT.709
Matrix coefficients : BT.709
Audio #1
ID : 2
Format : AC-3
Format/Info : Audio Coding 3
Mode extension : CM (complete main)
Format settings, Endianness : Big
Codec ID : A_AC3
Duration : 1h 36mn
Bit rate mode : Constant
Bit rate : 192 Kbps
Channel(s) : 2 channels
Channel positions : Front: L R
Sampling rate : 48.0 KHz
Bit depth : 16 bits
Compression mode : Lossy
Stream size : 133 MiB (4%)
Language : Russian
Default : Yes
Forced : No
Audio #2
ID : 3
Format : AC-3
Format/Info : Audio Coding 3
Mode extension : CM (complete main)
Format settings, Endianness : Big
Codec ID : A_AC3
Duration : 1h 36mn
Bit rate mode : Constant
Bit rate : 384 Kbps
Channel(s) : 6 channels
Channel positions : Front: L C R, Side: L R, LFE
Sampling rate : 48.0 KHz
Bit depth : 16 bits
Compression mode : Lossy
Stream size : 266 MiB (9%)
Language : Turkish
Default : No
Forced : No
Text
ID : 4
Format : UTF-8
Codec ID : S_TEXT/UTF8
Codec ID/Info : UTF-8 Plain Text
Language : English
Default : No
Forced : No
Menu
00:00:00.000 : en:1
00:13:02.000 : en:2
00:23:52.000 : en:3
00:35:24.000 : en:4
00:45:15.000 : en:5
00:54:32.000 : en:6
01:03:58.000 : en:7
01:12:56.000 : en:8
01:20:49.000 : en:9
01:31:33.000 : en:10

Скриншоты



[Профиль] [ЛС]
Кто просматривает тему:

Показать сообщения:    

Текущее время: Сегодня 06:07

Часовой пояс: GMT



Вы не можете начинать темы
Вы не можете отвечать на сообщения
Вы не можете редактировать свои сообщения
Вы не можете удалять свои сообщения
Вы не можете голосовать в опросах
Вы не можете прикреплять файлы к сообщениям
Вы не можете скачивать файлы