Клуб Винкс: Тайна морской бездны / Winx Club: Il mistero degli abissi (2014) BDRip [720p]

 
Автор Сообщение

sergej644 ®

Пол:

Стаж: 4 года 11 месяцев

Сообщений: 6046

Откуда: Soviet Union



Награды: Нет

Торрент-статистика

Создавать темы 13-Янв-2015 23:26

[Цитировать]

-Клуб Винкс: Тайна морской бездны / Winx Club: Il mistero degli abissi (2014) WEB-DLRip [H.264]- Год выпуска: 2014
Производство: Италия | Rainbow CGI, Rainbow S.r.l
Жанр: Мультфильм, фэнтези, приключения, семейный, полнометражный
Описание:
Трикс вернулись! Они хотят завладеть Императорским Троном, чтобы активировать огромную силу, но случайно будят Политею — злую нимфу, до сих пор проклятую тремя Древними Ведьмами Прородительницами. Она готова заключить сделку с Трикс. Политея рассказывает им о том, что для активации Трона им нужно освободить Тританнуса из Обливиона, но до этого им нужно заполучить жизненную силу Короля. Трикс сразу подумали о Скае, который является королём Эраклиона и к тому же женихом Блум. Ведьмы отправляются в Гардению, где Блум и Скай проводят время вместе.
Режиссер: Иджинио Страффи

Дата мировой премьеры: 2 сентября 2014
Дата российской премьеры: 2 октября 2014, «Люксор»
Дата выхода DVD релиза: 4 ноября 2014, «CD Land»
Озвучено: iTunes Russia
Перевод: Дублированный
Продолжительность: 01:22:58
Качество видео: BDRip 720p
Видео: MPEG-4 AVC/H.264, 1280x688 (1.860), 23.976 fps, 5 172 Kbps (0.245 bit/pixel)
Аудио #1: AC-3, 48.0 KHz, 6 ch, 384 Kbps, CBR (Русский)
Аудио #2: AC-3, 48.0 KHz, 6 ch, 384 Kbps, CBR (Итальянский)

MediaInfo

Complete name \Winx.Club-Il.mistero.degli.abissi.2014.BDRip.720p.mkv
Format : Matroska
Format version : Version 2
File size : 3.44 GiB
Duration : 1h 22mn
Overall bit rate : 5 941 Kbps
Movie name : Клуб Винкс: Тайна морской бездны
Encoded date : UTC 2015-01-01 20:04:28
Writing application : mkvmerge v5.8.0 ('No Sleep / Pillow') built on Sep 2 2012 15:37:04
Writing library : libebml v1.2.3 + libmatroska v1.3.0
Video
ID : 1
Format : AVC
Format/Info : Advanced Video Codec
Format profile : [url=mailto:High@L4.0]High@L4.0[/url]
Format settings, CABAC : Yes
Format settings, ReFrames : 8 frames
Codec ID : V_MPEG4/ISO/AVC
Duration : 1h 22mn
Bit rate : 5 172 Kbps
Width : 1 280 pixels
Height : 688 pixels
Display aspect ratio : 1.85:1
Frame rate mode : Constant
Frame rate : 23.976 fps
Color space : YUV
Chroma subsampling : 4:2:0
Bit depth : 8 bits
Scan type : Progressive
Bits/(Pixel*Frame) : 0.245
Stream size : 2.93 GiB (85%)
Writing library : x264 core 142 r2431+42 c69a006 tMod [8-bit@all X86_64]
Encoding settings : cabac=1 / ref=8 / deblock=1:-1:-1 / analyse=0x3:0x133 / me=umh / subme=7 / psy=1 / fade_compensate=0.00 / psy_rd=1.00:0.10 / mixed_ref=1 / me_range=16 / chroma_me=1 / trellis=2 / 8x8dct=1 / cqm=0 / deadzone=21,11 / fast_pskip=0 / chroma_qp_offset=-3 / threads=18 / lookahead_threads=3 / sliced_threads=0 / nr=0 / decimate=1 / interlaced=0 / bluray_compat=0 / constrained_intra=0 / fgo=0 / bframes=3 / b_pyramid=2 / b_adapt=2 / b_bias=0 / direct=3 / weightb=1 / open_gop=0 / weightp=2 / keyint=250 / keyint_min=23 / scenecut=40 / intra_refresh=0 / rc_lookahead=50 / rc=2pass / mbtree=1 / bitrate=5172 / ratetol=1.0 / qcomp=0.60 / qpmin=0:0:0 / qpmax=69:69:69 / qpstep=4 / cplxblur=20.0 / qblur=0.5 / ip_ratio=1.40 / aq=1:1.00 / aq-sensitivity=10.00 / aq-factor=1.00:1.00:1.00 / aq2=0 / aq3=0
Language : Italian
Default : Yes
Forced : No
Audio #1
ID : 2
Format : AC-3
Format/Info : Audio Coding 3
Mode extension : CM (complete main)
Format settings, Endianness : Big
Codec ID : A_AC3
Duration : 1h 22mn
Bit rate mode : Constant
Bit rate : 384 Kbps
Channel(s) : 6 channels
Channel positions : Front: L C R, Side: L R, LFE
Sampling rate : 48.0 KHz
Bit depth : 16 bits
Compression mode : Lossy
Stream size : 228 MiB (6%)
Title : Дубляж
Language : Russian
Default : Yes
Forced : Yes
Audio #2
ID : 3
Format : AC-3
Format/Info : Audio Coding 3
Mode extension : CM (complete main)
Format settings, Endianness : Big
Codec ID : A_AC3
Duration : 1h 22mn
Bit rate mode : Constant
Bit rate : 384 Kbps
Channel(s) : 6 channels
Channel positions : Front: L C R, Side: L R, LFE
Sampling rate : 48.0 KHz
Bit depth : 16 bits
Compression mode : Lossy
Stream size : 228 MiB (6%)
Title : Оригинал
Language : Italian
Default : No
Forced : No
Скриншоты:
[Профиль] [ЛС]
Кто просматривает тему:

Показать сообщения:    

Текущее время: Сегодня 20:46

Часовой пояс: GMT



Вы не можете начинать темы
Вы не можете отвечать на сообщения
Вы не можете редактировать свои сообщения
Вы не можете удалять свои сообщения
Вы не можете голосовать в опросах
Вы не можете прикреплять файлы к сообщениям
Вы не можете скачивать файлы