Клуб Винкс: Тайна морской бездны / Winx Club: Il mistero degli abissi (2014) WEB-DLRip-AVC от ExKinoRay | iTunes Russia

 
Автор Сообщение

sergej644 ®

Пол:

Стаж: 4 года 11 месяцев

Сообщений: 6045

Откуда: Soviet Union



Награды: Нет

Торрент-статистика

Создавать темы 07-Ноя-2014 10:44

[Цитировать]

Информация о фильме
Название: Клуб Винкс: Тайна морской бездны
Оригинальное название: Winx Club: Il mistero degli abissi
Год выпуска: 2014
Жанр: Мультфильм, семейный.
Выпущено: Италия, Rainbow CGI, Rainbow S.r.l
Режиссер: Иджинио Страффи
В ролях: Летиция Чиампа, Перла Либератори, Илария Латини, Джемма Донати, Домитилья Д’амико, Лаура Ленги, Марко Вивио, Алессандра Коромпай, Татьяна Десси, Федерика Де Бортоли
О фильме: Трикс вернулись! Они хотят завладеть Императорским Троном, чтобы активировать огромную силу, но случайно будят Политею — злую нимфу, до сих пор проклятую тремя Древними Ведьмами Прородительницами. Она готова заключить сделку с Трикс. Политея рассказывает им о том, что для активации Трона им нужно освободить Тританнуса из Обливиона, но до этого им нужно заполучить жизненную силу Короля. Трикс сразу подумали о Скае, который является королём Эраклиона и к тому же женихом Блум. Ведьмы отправляются в Гардению, где Блум и Скай проводят время вместе.

Файл
Качество: WEB-DLRip (AVC)
Видео: MPEG-4 AVC, 3500 Кбит/с, 1024x576, 24 кадр/с
Аудио: Русский (AC3, 6 ch, 384 Кбит/с)
Размер: 2.24 ГБ
Продолжительность: 01:22:39
Перевод: Дублированный
Озвучивание - Дублированное (iTunes Russia)
Сохранены оригинальные чаптеры как на исходном WEB-DL.

x264

x264 [info]: frame I:1089 Avg QP:14.97 size:118513
x264 [info]: frame P:36537 Avg QP:19.66 size: 33237
x264 [info]: frame B:81394 Avg QP:23.56 size: 10142
x264 [info]: consecutive B-frames: 5.1% 9.7% 9.8% 70.0% 2.7% 1.7% 0.2% 0.3% 0.1% 0.5%
x264 [info]: mb I I16..4: 9.4% 54.4% 36.2%
x264 [info]: mb P I16..4: 2.5% 13.4% 3.3% P16..4: 26.7% 29.1% 10.1% 4.1% 0.6% skip:10.1%
x264 [info]: mb B I16..4: 0.4% 2.2% 0.5% B16..8: 25.5% 17.8% 4.1% direct: 5.4% skip:44.2% L0:33.9% L1:43.6% BI:22.6%
x264 [info]: 8x8 transform intra:68.8% inter:51.3%
x264 [info]: direct mvs spatial:92.8% temporal:7.2%
x264 [info]: coded y,uvDC,uvAC intra: 80.5% 93.4% 80.4% inter: 21.4% 28.4% 18.3%
x264 [info]: i16 v,h,dc,p: 9% 15% 2% 74%
x264 [info]: i8 v,h,dc,ddl,ddr,vr,hd,vl,hu: 9% 10% 5% 9% 12% 12% 13% 13% 16%
x264 [info]: i4 v,h,dc,ddl,ddr,vr,hd,vl,hu: 10% 11% 5% 8% 15% 13% 14% 11% 14%
x264 [info]: i8c dc,h,v,p: 38% 20% 15% 26%
x264 [info]: Weighted P-Frames: Y:2.2% UV:1.6%
x264 [info]: ref P L0: 59.5% 11.7% 13.5% 4.3% 3.3% 2.4% 2.1% 1.3% 1.5% 0.3% 0.0%
x264 [info]: ref B L0: 87.6% 6.5% 2.5% 1.2% 0.8% 0.7% 0.5% 0.2%
x264 [info]: ref B L1: 97.2% 2.8%
x264 [info]: kb/s:3498.93

Инфо-файл

Общее
Уникальный идентификатор : 207742971370625824073882578192503091168 (0x9C49D7472E045C43B9CC86EA122B2FE0)
Полное имя : D:ЗагрузкиKlub.Vinks.Tajna.Morskoj.Bezdni.2014.x264.WEB-DLRip.(AVC).ExKinoRay.mkv
Формат : Matroska
Версия формата : Version 2
Размер файла : 2,24 Гбайт
Продолжительность : 1 ч. 22 м.
Общий поток : 3885 Кбит/сек
Название фильма : Клуб Винкс: Тайна морской бездны.2014.Rip by: ollan
Дата кодирования : UTC 2014-11-07 08:36:42
Программа кодирования : mkvmerge v5.6.0 ('Kenya Kane') built on May 27 2012 16:44:04
Библиотека кодирования : libebml v1.2.3 + libmatroska v1.3.0
Видео
Идентификатор : 1
Формат : AVC
Формат/Информация : Advanced Video Codec
Профиль формата : High@L4.1
Параметр CABAC формата : Да
Параметр ReFrames формата : 9 кадров
Идентификатор кодека : V_MPEG4/ISO/AVC
Продолжительность : 1 ч. 22 м.
Битрейт : 3500 Кбит/сек
Ширина : 1024 пикселя
Высота : 576 пикселей
Соотношение сторон : 16:9
Режим частоты кадров : Постоянный
Частота кадров : 24,000 кадра/сек
Цветовое пространство : YUV
Субдискретизация насыщенности : 4:2:0
Битовая глубина : 8 бит
Тип развёртки : Прогрессивная
Бит/(Пиксели*Кадры) : 0.247
Размер потока : 1,98 Гбайт (88%)
Библиотека кодирования : x264 core 125 r2200 999b753
Настройки программы : cabac=1 / ref=9 / deblock=1:-3:-3 / analyse=0x3:0x133 / me=umh / subme=11 / psy=1 / psy_rd=1.00:0.10 / mixed_ref=1 / me_range=32 / chroma_me=1 / trellis=2 / 8x8dct=1 / cqm=0 / deadzone=21,11 / fast_pskip=0 / chroma_qp_offset=-3 / threads=12 / lookahead_threads=2 / sliced_threads=0 / nr=0 / decimate=0 / interlaced=0 / bluray_compat=0 / constrained_intra=0 / bframes=9 / b_pyramid=2 / b_adapt=2 / b_bias=0 / direct=3 / weightb=1 / open_gop=0 / weightp=2 / keyint=240 / keyint_min=23 / scenecut=40 / intra_refresh=0 / rc_lookahead=60 / rc=2pass / mbtree=1 / bitrate=3500 / ratetol=1.0 / qcomp=0.60 / qpmin=0 / qpmax=69 / qpstep=4 / cplxblur=20.0 / qblur=0.5 / ip_ratio=1.40 / aq=1:1.00
Default : Да
Forced : Нет
Аудио
Идентификатор : 2
Формат : AC-3
Формат/Информация : Audio Coding 3
Расширение режима : CM (complete main)
Параметр Endianness формата : Big
Идентификатор кодека : A_AC3
Продолжительность : 1 ч. 22 м.
Вид битрейта : Постоянный
Битрейт : 384 Кбит/сек
Каналы : 6 каналов
Расположение каналов : Front: L C R, Side: L R, LFE
Частота : 48,0 КГц
Битовая глубина : 16 бит
Метод сжатия : С потерями
Размер потока : 227 Мбайт (10%)
Заголовок : Дублированный (iTunes Russia)
Язык : Russian
Default : Да
Forced : Нет
Меню
00:00:00.000 : en:Chapter 01
00:04:46.000 : en:Chapter 02
00:09:31.000 : en:Chapter 03
00:14:34.000 : en:Chapter 04
00:19:40.000 : en:Chapter 05
00:24:37.000 : en:Chapter 06
00:28:51.000 : en:Chapter 07
00:33:27.000 : en:Chapter 08
00:37:52.000 : en:Chapter 09
00:42:53.000 : en:Chapter 10
00:47:46.000 : en:Chapter 11
00:53:23.000 : en:Chapter 12
00:58:30.000 : en:Chapter 13
01:03:42.000 : en:Chapter 14
01:08:20.000 : en:Chapter 15
01:14:33.000 : en:Chapter 16

Скриншоты



Релиз от: Rip by:
[Профиль] [ЛС]
Кто просматривает тему:

Показать сообщения:    

Текущее время: Сегодня 07:59

Часовой пояс: GMT



Вы не можете начинать темы
Вы не можете отвечать на сообщения
Вы не можете редактировать свои сообщения
Вы не можете удалять свои сообщения
Вы не можете голосовать в опросах
Вы не можете прикреплять файлы к сообщениям
Вы не можете скачивать файлы