Клуб безбашенных / The Bang Bang Club (Стивен Сильвер / Steven Silver) [2010, Канада, ЮАР, драма, BDRip-AVC] MVO (R5) + DVO (НТВ+) + Original (Eng) + Subs (Rus, Eng)

 
Автор Сообщение

TorrentFilm ®

Пол:

Стаж: 2 года

Сообщений: 7741



Награды: Нет

Торрент-статистика

Создавать темы 11-Фев-2015 00:01

[Цитировать]

Клуб безбашенных / The Bang Bang Club«Бесстрашные герои или адреналиновые наркоманы?»- Страна: Канада, ЮАР
Жанр: драма
Год выпуска: 2010
Продолжительность: 01:47:34-Перевод №1: Профессиональный (многоголосый закадровый) - R5
Перевод №2: Профессиональный (двухголосый закадровый) - НТВ+
Оригинальная аудиодорожка: English
Cубтитры: Русские (полные), English (full)
Навигация по главам: присутствует - 17 глав-Режиссер: Стивен Сильвер / Steven Silver
В ролях: Райан Филипп, Малин Акерман, Тейлор Китч, Нильс Ван Ярсвельд, Фрэнк Ротенбаш, Нина Милнер, Джессика Хайнс, Рассел Савадье, Лика Ван Ден Берг, Кгоси Монгаке-Описание: Реальная история четырех молодых фотографов в ЮАР времен апартеида. Это удивительная и иногда ужасающая история людей и их невероятного подвига, на который они пошли, чтобы заполучить заветные фотографии.-
Download sample-Качество видео: BDRip-AVC | исх. BDRemux 1080p - thx: порошков
Формат: MKV-Видео: 1 120x476 (2.35:1), 23.976 fps, H.264 ~2761 kbps avg, 0.210 bit/pixel
Аудио №1: 48.0 kHz, AC3 Dolby Digital, 3/2 (L,C,R,l,r) + LFE ch, ~448 kbps | Профессиональный (многоголосый закадровый) - R5
Аудио №2: 48.0 kHz, AC3 Dolby Digital, 3/2 (L,C,R,l,r) + LFE ch, ~384 kbps | Профессиональный (двухголосый закадровый) - НТВ+
Аудио №3: 48.0 kHz, AC3 Dolby Digital, 3/2 (L,C,R,l,r) + LFE ch, ~448 kbps | English-

MediaInfo

General
Unique ID : 224103757207441680434490237106724683016 (0xA898D04C62AE99969E0A09856B923D08)
Complete name : D:\Фильмы\Рипы\The Bang Bang Club.2010.BDRip-AVC.eFK tRuAVC.mkv
Format : Matroska
Format version : Version 4 / Version 2
File size : 3.05 GiB
Duration : 1h 47mn
Overall bit rate : 4 044 Kbps
Movie name : Клуб безбашенных / The Bang Bang Club (2010) - Release for rutracker
Encoded date : UTC 2015-02-09 18:58:23
Writing application : mkvmerge v7.2.0 ('On Every Street') 64bit built on Sep 13 2014 15:52:10
Writing library : libebml v1.3.0 + libmatroska v1.4.1
Attachements : cover.png
DURATION : 01:47:01.207000000
NUMBER_OF_FRAMES : 1189
NUMBER_OF_BYTES : 35711
_STATISTICS_WRITING_APP : mkvmerge v7.2.0 ('On Every Street') 64bit built on Sep 13 2014 15:52:10
_STATISTICS_WRITING_DATE_UT : 2015-02-09 18:58:23
_STATISTICS_TAGS : BPS DURATION NUMBER_OF_FRAMES NUMBER_OF_BYTES
Video
ID : 1
Format : AVC
Format/Info : Advanced Video Codec
Format profile : High@L4.1
Format settings, CABAC : Yes
Format settings, ReFrames : 14 frames
Codec ID : V_MPEG4/ISO/AVC
Duration : 1h 47mn
Bit rate : 2 683 Kbps
Width : 1 120 pixels
Height : 476 pixels
Display aspect ratio : 2.35:1
Frame rate mode : Constant
Frame rate : 23.976 fps
Color space : YUV
Chroma subsampling : 4:2:0
Bit depth : 8 bits
Scan type : Progressive
Bits/(Pixel*Frame) : 0.210
Stream size : 2.02 GiB (66%)
Title : eFK tRuAVC
Writing library : x264 core 144 r2525kMod 40bb568
Encoding settings : cabac=1 / ref=14 / deblock=1:-2:-1 / analyse=0x3:0x133 / me=umh / subme=11 / psy=1 / fade_compensate=0.00 / psy_rd=0.95:0.05 / mixed_ref=1 / me_range=48 / chroma_me=1 / trellis=2 / 8x8dct=1 / cqm=0 / deadzone=21,11 / fast_pskip=0 / chroma_qp_offset=-3 / threads=12 / lookahead_threads=3 / sliced_threads=0 / nr=0 / decimate=1 / interlaced=0 / bluray_compat=0 / constrained_intra=0 / fgo=0 / bframes=16 / b_pyramid=2 / b_adapt=2 / b_bias=0 / direct=3 / weightb=1 / open_gop=0 / weightp=2 / keyint=250 / keyint_min=23 / scenecut=40 / intra_refresh=0 / rc_lookahead=60 / rc=crf / mbtree=0 / crf=20.0000 / qcomp=0.70 / qpmin=0 / qpmax=69 / qpstep=4 / vbv_maxrate=50000 / vbv_bufsize=62500 / crf_max=0.0 / nal_hrd=none / filler=0 / ip_ratio=1.25 / pb_ratio=1.15 / aq=3:1.05
Language : English
Default : Yes
Forced : No
Color primaries : BT.709
Transfer characteristics : BT.709
Matrix coefficients : BT.709
Color range : Limited
DURATION : 01:47:50.715000000
NUMBER_OF_FRAMES : 155142
NUMBER_OF_BYTES : 2232855034
_STATISTICS_WRITING_APP : mkvmerge v7.2.0 ('On Every Street') 64bit built on Sep 13 2014 15:52:10
_STATISTICS_WRITING_DATE_UT : 2015-02-09 18:58:23
_STATISTICS_TAGS : BPS DURATION NUMBER_OF_FRAMES NUMBER_OF_BYTES
Audio #1
ID : 2
Format : AC-3
Format/Info : Audio Coding 3
Mode extension : CM (complete main)
Format settings, Endianness : Big
Codec ID : A_AC3
Duration : 1h 47mn
Bit rate mode : Constant
Bit rate : 448 Kbps
Channel(s) : 6 channels
Channel positions : Front: L C R, Side: L R, LFE
Sampling rate : 48.0 KHz
Bit depth : 16 bits
Compression mode : Lossy
Stream size : 346 MiB (11%)
Title : MVO (R5)
Language : Russian
Default : Yes
Forced : No
Audio #2
ID : 3
Format : AC-3
Format/Info : Audio Coding 3
Mode extension : CM (complete main)
Format settings, Endianness : Big
Codec ID : A_AC3
Duration : 1h 47mn
Bit rate mode : Constant
Bit rate : 384 Kbps
Channel(s) : 6 channels
Channel positions : Front: L C R, Side: L R, LFE
Sampling rate : 48.0 KHz
Bit depth : 16 bits
Compression mode : Lossy
Stream size : 296 MiB (9%)
Title : DVO (НТВ+)
Language : Russian
Default : No
Forced : No
Audio #3
ID : 4
Format : AC-3
Format/Info : Audio Coding 3
Mode extension : CM (complete main)
Format settings, Endianness : Big
Codec ID : A_AC3
Duration : 1h 47mn
Bit rate mode : Constant
Bit rate : 448 Kbps
Channel(s) : 6 channels
Channel positions : Front: L C R, Side: L R, LFE
Sampling rate : 48.0 KHz
Bit depth : 16 bits
Compression mode : Lossy
Stream size : 346 MiB (11%)
Language : English
Default : No
Forced : No
Text #1
ID : 5
Format : UTF-8
Codec ID : S_TEXT/UTF8
Codec ID/Info : UTF-8 Plain Text
Title : full
Language : Russian
Default : No
Forced : No
Text #2
ID : 6
Format : UTF-8
Codec ID : S_TEXT/UTF8
Codec ID/Info : UTF-8 Plain Text
Title : full
Language : English
Default : No
Forced : No
Menu
00:00:00.000 : en:(01)00:00:00:000
00:05:13.313 : en:(02)00:05:13:313
00:11:59.552 : en:(03)00:11:59:552
00:18:59.304 : en:(04)00:18:59:304
00:24:53.992 : en:(05)00:24:53:992
00:30:55.270 : en:(06)00:30:55:270
00:36:16.632 : en:(07)00:36:16:632
00:43:18.637 : en:(08)00:43:18:637
00:49:37.849 : en:(09)00:49:37:849
00:56:28.218 : en:(10)00:56:28:218
01:02:51.642 : en:(11)01:02:51:642
01:09:20.364 : en:(12)01:09:20:364
01:14:54.948 : en:(13)01:14:54:948
01:21:20.292 : en:(14)01:21:20:292
01:30:18.079 : en:(15)01:30:18:079
01:41:29.583 : en:(16)01:41:29:583
01:47:34.656 : en:(17)01:47:34:656

x264 log

x264 [info]: frame I:1187 Avg QP:18.07 size: 59876
x264 [info]: frame P:33944 Avg QP:19.38 size: 25214
x264 [info]: frame B:120011 Avg QP:19.89 size: 10882
x264 [info]: consecutive B-frames: 2.4% 3.0% 9.0% 19.3% 15.4% 38.8% 4.7% 0.9% 1.8% 0.7% 1.0% 0.6% 0.4% 0.5% 0.7% 0.4% 0.4%
x264 [info]: mb I I16..4: 5.8% 78.6% 15.6%
x264 [info]: mb P I16..4: 0.7% 14.6% 1.7% P16..4: 30.8% 33.8% 11.1% 1.2% 0.1% skip: 6.0%
x264 [info]: mb B I16..4: 0.1% 1.6% 0.2% B16..8: 36.3% 23.6% 4.2% direct: 5.9% skip:28.0% L0:42.8% L1:46.1% BI:11.1%
x264 [info]: 8x8 transform intra:84.5% inter:62.6%
x264 [info]: direct mvs spatial:99.9% temporal:0.1%
x264 [info]: coded y,uvDC,uvAC intra: 91.6% 87.0% 62.3% inter: 30.4% 24.0% 3.9%
x264 [info]: i16 v,h,dc,p: 45% 10% 5% 40%
x264 [info]: i8 v,h,dc,ddl,ddr,vr,hd,vl,hu: 8% 7% 7% 10% 14% 14% 14% 13% 13%
x264 [info]: i4 v,h,dc,ddl,ddr,vr,hd,vl,hu: 11% 7% 4% 8% 15% 16% 14% 12% 12%
x264 [info]: i8c dc,h,v,p: 39% 24% 19% 18%
x264 [info]: Weighted P-Frames: Y:4.3% UV:2.8%
x264 [info]: ref P L0: 47.2% 11.6% 16.2% 5.5% 4.7% 3.3% 3.0% 1.7% 1.6% 1.2% 1.2% 0.9% 1.0% 0.9% 0.1% 0.0%
x264 [info]: ref B L0: 74.4% 10.6% 4.9% 2.6% 1.8% 1.6% 1.2% 0.9% 0.6% 0.6% 0.5% 0.3% 0.1%
x264 [info]: ref B L1: 93.8% 6.2%
x264 [info]: kb/s:2760.57
x264 [total]: encoded 155142 frames, 7.75 fps, 2760.57 kb/s, duration 5:33:36.50

Comparison

Source

Encode
[Профиль] [ЛС]

Создавать темы 06-Авг-2015 22:44 (спустя 5 месяцев 23 дня)

Топик был перенесен из форума Фильмы до 2014 года в форум Фильмы до 2012 года
sergej644
 

Создавать темы 12-Июн-2016 07:54 (спустя 1 год 4 месяца)

Топик был перенесен из форума Фильмы 2011 года в форум Фильмы 2010 года
Russian Mafia
 
Кто просматривает тему:

Показать сообщения:    

Текущее время: Сегодня 00:03

Часовой пояс: GMT



Вы не можете начинать темы
Вы не можете отвечать на сообщения
Вы не можете редактировать свои сообщения
Вы не можете удалять свои сообщения
Вы не можете голосовать в опросах
Вы не можете прикреплять файлы к сообщениям
Вы не можете скачивать файлы