Клуб безбашенных / The Bang Bang Club (Стивен Сильвер / Steven Silver) [2009, Канада, ЮАР, драма, DVB] MVO

 
Автор Сообщение

painkiller ®

Стаж: 2 года 3 месяца

Сообщений: 582



Награды: Нет

Торрент-статистика

Создавать темы 15-Авг-2014 01:09

[Цитировать]

Клуб безбашенных / The Bang Bang Club
Страна: Канада, ЮАР
Жанр: драма
Год выпуска: 2009
Продолжительность: 01:43:25
Перевод: Профессиональный (многоголосый закадровый)
Cубтитры: нет
Оригинальная аудиодорожка: нет
Режиссер: Стивен Сильвер / Steven Silver
В ролях: Райан Филипп, Малин Акерман, Тейлор Китч, Нильс Ван Ярсвельд, Фрэнк Ротенбаш, Нина Милнер, Джессика Хайнс, Рассел Савадье, Лика Ван Ден Берг, Кгоси Монгаке
Описание: Реальная история четырех молодых фотографов в ЮАР времен апартеида. Это удивительная и иногда ужасающая история людей и их невероятного подвига, на который они пошли, чтобы заполучить заветные фотографии.
Доп. информация: Запись потока *.ts со спутника EUTELSAT, ремукс в *.mpg программой VideoReDo.
Сэмпл: http://multi-up.com/944700
Качество видео: DVB
Формат видео: MPEG-PS
Видео: MPEG Video, 720(768)x576 (4:3), 25,000 кадров/сек, 2 743 Кбит/сек
Аудио: MPEG Audio, 48,0 КГц, 128 Кбит/сек, 2 канала

MediaInfo

General
Complete name : D:\Torrent\КЛУБ БЕЗБАШЕННЫХ\КЛУБ БЕЗБАШЕННЫХ (TВ-21М).mpg
Format : MPEG-PS
File size : 2.12 GiB
Duration : 1h 43mn
Overall bit rate mode : Variable
Overall bit rate : 2 929 Kbps
Video
ID : 224 (0xE0)
Format : MPEG Video
Format version : Version 2
Format profile : Main@Main
Format settings, BVOP : Yes
Format settings, Matrix : Default
Duration : 1h 43mn
Bit rate mode : Variable
Bit rate : 2 743 Kbps
Maximum bit rate : 5 000 Kbps
Width : 720 pixels
Height : 576 pixels
Display aspect ratio : 16:9
Frame rate : 25.000 fps
Standard : PAL
Color space : YUV
Chroma subsampling : 4:2:0
Bit depth : 8 bits
Scan type : Interlaced
Scan order : Top Field First
Compression mode : Lossy
Bits/(Pixel*Frame) : 0.265
Stream size : 1.98 GiB (94%)
Audio
ID : 192 (0xC0)
Format : MPEG Audio
Format version : Version 1
Format profile : Layer 2
Duration : 1h 43mn
Bit rate mode : Constant
Bit rate : 128 Kbps
Channel(s) : 2 channels
Sampling rate : 48.0 KHz
Compression mode : Lossy
Stream size : 94.7 MiB (4%)

Скриншот c названием фильма

[Профиль] [ЛС]

Создавать темы 06-Авг-2015 23:11 (спустя 11 месяцев 22 дня)

Топик был перенесен из форума Фильмы до 2014 года в форум Фильмы до 2012 года
sergej644
 

Создавать темы 12-Июн-2016 08:48 (спустя 1 год 9 месяцев)

Топик был перенесен из форума Фильмы 2011 года в форум Фильмы 2009 года
Russian Mafia
 
Кто просматривает тему:

Показать сообщения:    

Текущее время: Сегодня 04:48

Часовой пояс: GMT



Вы не можете начинать темы
Вы не можете отвечать на сообщения
Вы не можете редактировать свои сообщения
Вы не можете удалять свои сообщения
Вы не можете голосовать в опросах
Вы не можете прикреплять файлы к сообщениям
Вы не можете скачивать файлы