Клоун / Clown (Джонатан Уоттс) [2014 г.,ужасы, драма,HDRip-AVC]

 
Автор Сообщение

adeei ®

Пол:

Стаж: 1 год 8 месяцев

Сообщений: 63

Откуда: Россия Иваново



Награды: 3 (Подробнее)

Mega Seeder 2 (Количество: 1) Mega Seeder 1 (Количество: 1) Mega Seeder 3 (Количество: 1)
Торрент-статистика

Создавать темы 22-Мар-2015 10:32

[Цитировать]

Клоун / Clown
Год выхода: 2014
Жанр: ужасы, драма
Страна: США, Канада
Студия: Cross Creek Pictures, PS 260, Vertebra Films
Продолжительность: 01:39:19
Перевод: Любительский одноголосый (den904)
Субтитры: Английские-Режиссер: Джонатан Уоттс-В ролях: Петер Стормаре, Элай Рот, Лаура Аллен, Элизабет Уитмер, Кристиан Дистефано, Джон МакДональд, Джулия А. Лонг, Чак Шамата, Сара Схеффер, Энди Пауэрс, Клаудия Журт, Джоди Ларратт-Описание: Любящий отец специально для дня рождения сына находит костюм клоуна, но он и не подозревал, что на этот костюм наложено проклятье, которое превращает его владельца в убийцу.- -Кодек: AVC
Качество: HDRip-AVC
Видео: 960x544, 1717 kbps, 23,976 fps, 0,137 Bits/(Pixel*Frame)
Аудио#1: Русский, AC3, 48 kHz, 2 ch, 192 kbps
Аудио#2: Английский, AC3, 48 kHz, 2 ch, 192 kbps-

MI

General
Unique ID : 213202520042320285069508890409711168739 (0xA0654FCF4BB7A73AB4DD49E3EA83ECE3)
Complete name : I:Clown.2014.HDRip-AVC_by_Bathory.mkv
Format : Matroska
Format version : Version 4 / Version 2
File size : 1.46 GiB
Duration : 1h 39mn
Overall bit rate : 2 100 Kbps
Encoded date : UTC 2015-03-22 09:25:12
Writing application : mkvmerge v7.7.0 ('Six Voices') 64bit built on Feb 28 2015 23:39:33
Writing library : libebml v1.3.1 + libmatroska v1.4.2
_STATISTICS_WRITING_APP : mkvmerge v7.7.0 ('Six Voices') 64bit built on Feb 28 2015 23:39:33
_STATISTICS_WRITING_DATE_UTC : 2015-03-22 09:25:12
_STATISTICS_TAGS : BPS DURATION NUMBER_OF_FRAMES NUMBER_OF_BYTES
DURATION : 01:39:18.592000000
NUMBER_OF_FRAMES : 186206
NUMBER_OF_BYTES : 143006208
Video
ID : 1
Format : AVC
Format/Info : Advanced Video Codec
Format profile : High@L4.1
Format settings, CABAC : Yes
Format settings, ReFrames : 12 frames
Codec ID : V_MPEG4/ISO/AVC
Duration : 1h 39mn
Bit rate : 1 717 Kbps
Width : 960 pixels
Height : 544 pixels
Display aspect ratio : 16:9
Frame rate mode : Constant
Frame rate : 23.976 fps
Color space : YUV
Chroma subsampling : 4:2:0
Bit depth : 8 bits
Scan type : Progressive
Bits/(Pixel*Frame) : 0.137
Stream size : 1.16 GiB (80%)
Writing library : x264 core 146 r2538 121396c
Encoding settings : cabac=1 / ref=12 / deblock=1:-3:-3 / analyse=0x3:0x133 / me=umh / subme=11 / psy=1 / psy_rd=1.15:0.15 / mixed_ref=1 / me_range=48 / chroma_me=1 / trellis=2 / 8x8dct=1 / cqm=0 / deadzone=21,11 / fast_pskip=0 / chroma_qp_offset=-3 / threads=12 / lookahead_threads=3 / sliced_threads=0 / nr=0 / decimate=1 / interlaced=0 / bluray_compat=0 / constrained_intra=0 / bframes=16 / b_pyramid=2 / b_adapt=2 / b_bias=0 / direct=3 / weightb=1 / open_gop=0 / weightp=2 / keyint=240 / keyint_min=23 / scenecut=40 / intra_refresh=0 / rc_lookahead=60 / rc=2pass / mbtree=1 / bitrate=1717 / ratetol=1.0 / qcomp=0.60 / qpmin=0 / qpmax=69 / qpstep=4 / cplxblur=20.0 / qblur=0.5 / vbv_maxrate=62500 / vbv_bufsize=78125 / nal_hrd=none / filler=0 / ip_ratio=1.40 / aq=1:1.00
Default : Yes
Forced : No
Audio #1
ID : 2
Format : AC-3
Format/Info : Audio Coding 3
Mode extension : CM (complete main)
Format settings, Endianness : Big
Codec ID : A_AC3
Duration : 1h 39mn
Bit rate mode : Constant
Bit rate : 192 Kbps
Channel(s) : 2 channels
Channel positions : Front: L R
Sampling rate : 48.0 KHz
Bit depth : 16 bits
Compression mode : Lossy
Stream size : 136 MiB (9%)
Language : Russian
Default : Yes
Forced : No
Audio #2
ID : 3
Format : AC-3
Format/Info : Audio Coding 3
Mode extension : CM (complete main)
Format settings, Endianness : Big
Codec ID : A_AC3
Duration : 1h 39mn
Bit rate mode : Constant
Bit rate : 192 Kbps
Channel(s) : 2 channels
Channel positions : Front: L R
Sampling rate : 48.0 KHz
Bit depth : 16 bits
Compression mode : Lossy
Stream size : 136 MiB (9%)
Language : English
Default : No
Forced : No
Text #1
ID : 4
Format : UTF-8
Codec ID : S_TEXT/UTF8
Codec ID/Info : UTF-8 Plain Text
Title : English
Language : English
Default : No
Forced : No
Text #2
ID : 5
Format : UTF-8
Codec ID : S_TEXT/UTF8
Codec ID/Info : UTF-8 Plain Text
Title : English (SDH)
Language : English
Default : No
Forced : No
Menu
00:00:00.000 : en:00:00:00.000
00:07:44.381 : en:00:07:44.381
00:15:10.660 : en:00:15:10.660
00:19:40.679 : en:00:19:40.679
00:25:21.145 : en:00:25:21.145
00:31:41.608 : en:00:31:41.608
00:37:20.363 : en:00:37:20.363
00:41:28.069 : en:00:41:28.069
00:47:18.878 : en:00:47:18.878
00:54:38.442 : en:00:54:38.442
01:01:20.218 : en:01:01:20.218
01:07:04.395 : en:01:07:04.395
01:14:12.281 : en:01:14:12.281
01:20:07.177 : en:01:20:07.177
01:24:37.781 : en:01:24:37.781
01:35:21.215 : en:01:35:21.215

Скриншоты

-
[Профиль] [ЛС]
Показать сообщения:    

Текущее время: Сегодня 08:12

Часовой пояс: GMT



Вы не можете начинать темы
Вы не можете отвечать на сообщения
Вы не можете редактировать свои сообщения
Вы не можете удалять свои сообщения
Вы не можете голосовать в опросах
Вы не можете прикреплять файлы к сообщениям
Вы не можете скачивать файлы