Кловерфилд, 10 / 10 Cloverfield Lane (2016) BDRip 1080p от ExKinoRay | Line

 
Автор Сообщение

Russian Mafia ®

Пол:

Стаж: 1 год 8 месяцев

Сообщений: 4257



Награды: 10 (Подробнее)

Top Releaser 5 (Количество: 1) Top Releaser 3 (Количество: 1) За внесенный вклад в развитие сайта (Количество: 1)
Торрент-статистика

Создавать темы 05-Июн-2016 04:09

[Цитировать]

Информация о фильме
Название: Кловерфилд, 10
Оригинальное название: 10 Cloverfield Lane
Год выхода: 2016
Жанр: Ужасы, фантастика, триллер, драма, детектив
Режиссер: Дэн Трактенберг
В ролях: Джон Гудман, Мэри Элизабет Уинстэд, Джон Галлахер мл., Дуглас М. Гриффин, Сюзанн Крайер, Брэдли Купер, Сумали Монтано, Синди Хоган, Мат Ваиро
О фильме:
Проснувшись после автомобильной аварии, девушка оказывается в подвале человека, утверждающего, что он спас ей жизнь от химической атаки, которая сделала мир за пределами бункера непригодным для жизни

Страна: США
Студия: Bad Robot, Paramount Pictures, Spectrum Effects
Продолжительность: 01:43:18
Перевод: Дублированный | Чистый звук
Файл
Кодек: MPEG-4
Качество: BDRip 1080p
Видео: 1920x800, 12.6 Mbit/s, 23.976 fps
Звук:
Аудио #01: 48 kHz, AC3, 2.0, 256 Kbps | Дублированный, Чистый звук |AC3
Аудио #02: 48 kHz, AC3, 5.1, 640 kbps | Оригинал |AC3
Субтитры: Русские, английские

MI

General
Unique ID : 249857824791633287344323196683205996809 (0xBBF8DDDD77864978B355C4B53BD3F109)
Complete name : F:Video10.Cloverfield.Lane.2016.BDRip.1080p.ExKinoRay.mkv
Format : Matroska
Format version : Version 4 / Version 2
File size : 9.75 GiB
Duration : 1h 43mn
Overall bit rate : 13.5 Mbps
Movie name : 10.Cloverfield.Lane.2016.BDRip.1080p.ExKinoRay
Encoded date : UTC 2016-06-05 00:10:54
Writing application : mkvmerge v8.3.0 ('Over the Horizon') 64bit
Writing library : libebml v1.3.1 + libmatroska v1.4.2
Video
ID : 1
Format : AVC
Format/Info : Advanced Video Codec
Format profile : High@L4.1
Format settings, CABAC : Yes
Format settings, ReFrames : 5 frames
Codec ID : V_MPEG4/ISO/AVC
Duration : 1h 43mn
Bit rate : 12.6 Mbps
Width : 1 920 pixels
Height : 800 pixels
Display aspect ratio : 2.40:1
Frame rate mode : Constant
Frame rate : 23.976 (24000/1001) fps
Color space : YUV
Chroma subsampling : 4:2:0
Bit depth : 8 bits
Scan type : Progressive
Bits/(Pixel*Frame) : 0.341
Stream size : 9.10 GiB (93%)
Writing library : x264 core 146 r2538 121396c
Encoding settings : cabac=1 / ref=5 / deblock=1:-3:-3 / analyse=0x3:0x133 / me=tesa / subme=11 / psy=1 / psy_rd=1.02:0.00 / mixed_ref=1 / me_range=32 / chroma_me=1 / trellis=2 / 8x8dct=1 / cqm=0 / deadzone=21,11 / fast_pskip=0 / chroma_qp_offset=-2 / threads=48 / lookahead_threads=6 / sliced_threads=0 / nr=0 / decimate=0 / interlaced=0 / bluray_compat=0 / constrained_intra=0 / bframes=12 / b_pyramid=2 / b_adapt=2 / b_bias=0 / direct=3 / weightb=1 / open_gop=0 / weightp=2 / keyint=240 / keyint_min=23 / scenecut=40 / intra_refresh=0 / rc_lookahead=150 / rc=crf / mbtree=0 / crf=17.4 / qcomp=0.60 / qpmin=0 / qpmax=69 / qpstep=4 / vbv_maxrate=62500 / vbv_bufsize=78125 / crf_max=0.0 / nal_hrd=none / filler=0 / ip_ratio=1.40 / pb_ratio=1.30 / aq=1:0.80
Language : English
Default : Yes
Forced : No
Audio #1
ID : 2
Format : AC-3
Format/Info : Audio Coding 3
Mode extension : CM (complete main)
Format settings, Endianness : Big
Codec ID : A_AC3
Duration : 1h 43mn
Bit rate mode : Constant
Bit rate : 256 Kbps
Channel(s) : 2 channels
Channel positions : Front: L R
Sampling rate : 48.0 KHz
Frame rate : 31.250 fps (1536 spf)
Compression mode : Lossy
Stream size : 190 MiB (2%)
Title : DUB [Line]
Language : Russian
Default : Yes
Forced : No
Audio #2
ID : 3
Format : AC-3
Format/Info : Audio Coding 3
Mode extension : CM (complete main)
Format settings, Endianness : Big
Codec ID : A_AC3
Duration : 1h 43mn
Bit rate mode : Constant
Bit rate : 640 Kbps
Channel(s) : 6 channels
Channel positions : Front: L C R, Side: L R, LFE
Sampling rate : 48.0 KHz
Frame rate : 31.250 fps (1536 spf)
Compression mode : Lossy
Stream size : 474 MiB (5%)
Title : Original
Language : English
Default : No
Forced : No
Text #1
ID : 4
Format : UTF-8
Codec ID : S_TEXT/UTF8
Codec ID/Info : UTF-8 Plain Text
Duration : 1h 32mn
Bit rate : 53 bps
Count of elements : 748
Stream size : 36.6 KiB (0%)
Language : Russian
Default : No
Forced : No
Text #2
ID : 5
Format : UTF-8
Codec ID : S_TEXT/UTF8
Codec ID/Info : UTF-8 Plain Text
Duration : 1h 32mn
Bit rate : 36 bps
Count of elements : 843
Stream size : 24.8 KiB (0%)
Language : English
Default : No
Forced : No
Text #3
ID : 6
Format : UTF-8
Codec ID : S_TEXT/UTF8
Codec ID/Info : UTF-8 Plain Text
Duration : 1h 36mn
Bit rate : 40 bps
Count of elements : 1063
Stream size : 28.5 KiB (0%)
Title : SDH
Language : English
Default : No
Forced : No
Menu
00:00:00.000 : en:Chapter 1
00:05:55.605 : en:Chapter 2
00:14:52.517 : en:Chapter 3
00:19:18.157 : en:Chapter 4
00:24:11.992 : en:Chapter 5
00:32:21.940 : en:Chapter 6
00:42:59.243 : en:Chapter 7
00:47:47.740 : en:Chapter 8
00:53:37.089 : en:Chapter 9
00:57:00.626 : en:Chapter 10
01:03:10.745 : en:Chapter 11
01:11:20.193 : en:Chapter 12
01:15:49.420 : en:Chapter 13
01:24:21.265 : en:Chapter 14
01:28:19.085 : en:Chapter 15
01:37:31.512 : en:Chapter 16

Скриншоты

[Профиль] [ЛС]
Показать сообщения:    

Текущее время: Сегодня 12:15

Часовой пояс: GMT



Вы не можете начинать темы
Вы не можете отвечать на сообщения
Вы не можете редактировать свои сообщения
Вы не можете удалять свои сообщения
Вы не можете голосовать в опросах
Вы не можете прикреплять файлы к сообщениям
Вы не можете скачивать файлы