Кловерфилд, 10 / 10 Cloverfield Lane (2016) BDRemux 1080p от ExKinoRay | Line

 
Автор Сообщение

Russian Mafia ®

Пол:

Стаж: 1 год 8 месяцев

Сообщений: 4255



Награды: 10 (Подробнее)

Mega Seeder 5 (Количество: 1) Top Releaser 5 (Количество: 1) Mega Seeder 1 (Количество: 1)
Торрент-статистика

Создавать темы 04-Июн-2016 16:36

[Цитировать]

Информация о фильме
Название: Кловерфилд, 10
Оригинальное название: 10 Cloverfield Lane
Год выхода: 2016
Жанр: Ужасы, фантастика, триллер, драма, детектив
Режиссер: Дэн Трактенберг
В ролях: Джон Гудман, Мэри Элизабет Уинстэд, Джон Галлахер мл., Дуглас М. Гриффин, Сюзанн Крайер, Брэдли Купер, Сумали Монтано, Синди Хоган, Мат Ваиро
О фильме:
Проснувшись после автомобильной аварии, девушка оказывается в подвале человека, утверждающего, что он спас ей жизнь от химической атаки, которая сделала мир за пределами бункера непригодным для жизни

Страна: США
Студия: Bad Robot, Paramount Pictures, Spectrum Effects
Продолжительность: 01:43:18
Перевод: Дублированный | Чистый звук
Файл
Кодек: MPEG-4
Качество: BDRemux 1080p
Видео: 1920x1080, 25.4 Mbit/s, 23.976 fps
Звук:
Аудио #01: 48 kHz, AC3, 2.0, 256 Kbps | Дублированный, Чистый звук |AC3
Аудио #02: 48 kHz, TrueHD, 7.1, 4614 kbps | Оригинал |TrueHD
Субтитры: Русские, английские

MI

General
Unique ID : 219741344387855404146285442279889511470 (0xA550A4BD92940B179EC21A15FB39242E)
Complete name : F:Video10.Cloverfield.....Lane.2016.BDREMUX.1080p.ExKinoRay.mkv
Format : Matroska
Format version : Version 4 / Version 2
File size : 21.9 GiB
Duration : 1h 43mn
Overall bit rate mode : Variable
Overall bit rate : 30.3 Mbps
Movie name : 10.Cloverfield.Lane.2016.BDREMUX.1080p.ExKinoRay
Encoded date : UTC 2016-06-04 14:02:37
Writing application : mkvmerge v8.3.0 ('Over the Horizon') 64bit
Writing library : libebml v1.3.1 + libmatroska v1.4.2
Video
ID : 1
Format : AVC
Format/Info : Advanced Video Codec
Format profile : High@L4.1
Format settings, CABAC : Yes
Format settings, ReFrames : 4 frames
Codec ID : V_MPEG4/ISO/AVC
Duration : 1h 43mn
Bit rate mode : Variable
Bit rate : 25.4 Mbps
Maximum bit rate : 28.0 Mbps
Width : 1 920 pixels
Height : 1 080 pixels
Display aspect ratio : 16:9
Frame rate mode : Constant
Frame rate : 23.976 (24000/1001) fps
Color space : YUV
Chroma subsampling : 4:2:0
Bit depth : 8 bits
Scan type : Progressive
Bits/(Pixel*Frame) : 0.511
Stream size : 18.4 GiB (84%)
Language : English
Default : Yes
Forced : No
Audio #1
ID : 2
Format : AC-3
Format/Info : Audio Coding 3
Mode extension : CM (complete main)
Format settings, Endianness : Big
Codec ID : A_AC3
Duration : 1h 43mn
Bit rate mode : Constant
Bit rate : 256 Kbps
Channel(s) : 2 channels
Channel positions : Front: L R
Sampling rate : 48.0 KHz
Frame rate : 31.250 fps (1536 spf)
Compression mode : Lossy
Stream size : 190 MiB (1%)
Title : DUB [Line]
Language : Russian
Default : Yes
Forced : No
Audio #2
ID : 3
Format : Atmos / TrueHD
Codec ID : A_TRUEHD
Duration : 1h 43mn
Bit rate mode : Variable
Bit rate : 4 614 Kbps
Maximum bit rate : 8 544 Kbps
Channel(s) : Object Based / 8 channels
Channel positions : Object Based / Front: L C R, Side: L R, Back: L R, LFE
Sampling rate : / 48.0 KHz
Frame rate : 1 200.000 fps (40 spf)
Compression mode : Lossless
Stream size : 3.34 GiB (15%)
Title : Original
Language : English
Default : No
Forced : No
Text #1
ID : 4
Format : UTF-8
Codec ID : S_TEXT/UTF8
Codec ID/Info : UTF-8 Plain Text
Duration : 1h 32mn
Bit rate : 53 bps
Count of elements : 748
Stream size : 36.6 KiB (0%)
Language : Russian
Default : No
Forced : No
Text #2
ID : 5
Format : UTF-8
Codec ID : S_TEXT/UTF8
Codec ID/Info : UTF-8 Plain Text
Duration : 1h 32mn
Bit rate : 34 bps
Count of elements : 759
Stream size : 23.4 KiB (0%)
Language : English
Default : No
Forced : No
Menu
00:00:00.000 : en:Chapter 01
00:05:55.605 : en:Chapter 02
00:14:52.517 : en:Chapter 03
00:19:18.157 : en:Chapter 04
00:24:11.992 : en:Chapter 05
00:32:21.940 : en:Chapter 06
00:42:59.243 : en:Chapter 07
00:47:47.740 : en:Chapter 08
00:53:37.089 : en:Chapter 09
00:57:00.626 : en:Chapter 10
01:03:10.745 : en:Chapter 11
01:11:20.193 : en:Chapter 12
01:15:49.420 : en:Chapter 13
01:24:21.265 : en:Chapter 14
01:28:19.085 : en:Chapter 15
01:37:31.512 : en:Chapter 16

Скриншоты

[Профиль] [ЛС]
Показать сообщения:    

Текущее время: Сегодня 16:20

Часовой пояс: GMT



Вы не можете начинать темы
Вы не можете отвечать на сообщения
Вы не можете редактировать свои сообщения
Вы не можете удалять свои сообщения
Вы не можете голосовать в опросах
Вы не можете прикреплять файлы к сообщениям
Вы не можете скачивать файлы