Клинч (Сергей Пускепалис) [2015, Россия, драма, WEB-DL 1080p] + Original Rus

 
Автор Сообщение

TorrentFilm ®

Пол:

Стаж: 2 года

Сообщений: 7741



Награды: Нет

Торрент-статистика

Создавать темы 08-Дек-2015 00:10

[Цитировать]

Клинч
Страна: Россия
Студия: Марс Медиа Энтертейнмент
Жанр: драма
Год выпуска: 2015
Продолжительность: 01:37:32
Перевод: Не требуется
Cубтитры: нет
Оригинальная аудиодорожка: русский
Режиссер: Сергей Пускепалис
В ролях: Алексей Серебряков, Ася Домская, Агриппина Стеклова, Вячеслав Евлантьев, Максим Лагашкин, Сергей Степин, Илья Чертов, Ирина Луковская, Анна Уколова, Ирина Ильинская
Описание: У школьного учителя литературы Федорова был трудный день. Две смены, потом собрание, затем нотация от директрисы, а в его маленькой квартире жена затеяла ремонт. Вдобавок ко всему по дороге домой за ним увязывается незнакомая девушка, которая выхватывает из рук учителя портфель и убегает. Федоров догоняет воровку, она плачет, жалуется на сложную жизнь и вдруг начинает обвинять его в самоубийстве своей подруги и угрожать приездом жениха-бандита. Посчитав незнакомку сумасшедшей, Федоров собирается уйти, не подозревая, что это только начало опасного знакомства.

Sample
Тип релиза: WEB-DL 1080p
Контейнер: MKV
Видео: MPEG4 AVC Video, H264, 16:9, 1904x792, 25 fps, 4471 kbps
Аудио: Russian (AC3, 6 ch, 384 kbps, 16 bits, 48.0 KHz) - оригинал

MediaInfo

General
Unique ID : 195018327054175602903098308210084583564 (0x92B729E03BFBAA11B92BF3328994988C)
Complete name : L:\Клинч 2015 WEB-DL 1080p.mkv
Format : Matroska
Format version : Version 4 / Version 2
File size : 3.37 GiB
Duration : 1h 37mn
Overall bit rate : 4 954 Kbps
Encoded date : UTC 2015-12-02 16:29:33
Writing application : mkvmerge v8.3.0 ('Over the Horizon') 64bit
Writing library : libebml v1.3.1 + libmatroska v1.4.2
DURATION : 01:37:32.192000000
NUMBER_OF_FRAMES : 182881
NUMBER_OF_BYTES : 280905216
_STATISTICS_WRITING_APP : mkvmerge v8.3.0 ('Over the Horizon') 64bit
_STATISTICS_WRITING_DATE_UTC : 2015-12-02 16:29:33
_STATISTICS_TAGS : BPS DURATION NUMBER_OF_FRAMES NUMBER_OF_BYTES
Video
ID : 1
Format : AVC
Format/Info : Advanced Video Codec
Format profile : High@L4.0
Format settings, CABAC : Yes
Format settings, ReFrames : 5 frames
Codec ID : V_MPEG4/ISO/AVC
Duration : 1h 37mn
Bit rate : 4 471 Kbps
Width : 1 904 pixels
Height : 792 pixels
Display aspect ratio : 2.40:1
Frame rate mode : Constant
Frame rate : 25.000 fps
Color space : YUV
Chroma subsampling : 4:2:0
Bit depth : 8 bits
Scan type : Progressive
Bits/(Pixel*Frame) : 0.119
Stream size : 3.05 GiB (90%)
Language : English
Default : Yes
Forced : No
Color primaries : BT.709
Transfer characteristics : BT.709
Matrix coefficients : BT.709
Audio
ID : 2
Format : AC-3
Format/Info : Audio Coding 3
Mode extension : CM (complete main)
Format settings, Endianness : Big
Codec ID : A_AC3
Duration : 1h 37mn
Bit rate mode : Constant
Bit rate : 384 Kbps
Channel count : 6 channels
Channel positions : Front: L C R, Side: L R, LFE
Sampling rate : 48.0 KHz
Bit depth : 16 bits
Compression mode : Lossy
Stream size : 268 MiB (8%)
Language : Russian
Default : Yes
Forced : No
Menu
00:00:00.000 : en:1
00:08:54.000 : en:2
00:17:07.000 : en:3
00:28:52.000 : en:4
00:40:23.000 : en:5
00:49:37.000 : en:6
00:59:32.000 : en:7
01:10:21.000 : en:8
01:21:38.000 : en:9
01:35:04.000 : en:10

Скриншоты

[Профиль] [ЛС]
Показать сообщения:    

Текущее время: Сегодня 14:40

Часовой пояс: GMT



Вы не можете начинать темы
Вы не можете отвечать на сообщения
Вы не можете редактировать свои сообщения
Вы не можете удалять свои сообщения
Вы не можете голосовать в опросах
Вы не можете прикреплять файлы к сообщениям
Вы не можете скачивать файлы