Клим [S01] (2015) HDTVRip

 
Автор Сообщение

достали все ®

Пол:

Стаж: 1 год 8 месяцев

Сообщений: 6545



Награды: 12 (Подробнее)

Mega Releaser 2 (Количество: 1) За внесенный вклад в развитие сайта (Количество: 1) Mega Releaser 3 (Количество: 1)
Торрент-статистика

Создавать темы 29-Фев-2016 05:13

[Цитировать]

Информация о фильме
Название: Клим
Год выхода: 2015
Жанр: Драма, криминал, триллер
Режиссер: Карен Оганесян
В ролях: Константин Лавроненко, Дарья Мингазетдинова, Анна Вартанян, Павел Чинарёв, Сергей Шнырёв, Сергей Кудрявцев, Виталий Коваленко, Татьяна Колганова, Евгений Добряков, Григорий Чабан, Денис Старков, Валерия Кожевникова, Олег Рязанцев, Иван Николаев, Никита Панфилов, Антон Багров, Алексей Фокин, Олег Федоров (III), Светлана Цвиченко, Рина Гришина, Марина Дуксова, Владимир Чернышов, Александр Большаков
О фильме:
Российская версия культового английского сериала «Лютер». Клим Рощин – полицейский с обостренным чувством справедливости и долга. Методы его работы уникальны. Клим не использует оружия. В его арсенале дедукция, интуиция, провокационные допросы и… знание повадок хищников. До службы в уголовном розыске Клим был ученым-этологом: изучал жизнь волков, жил в стае. Теперь свое феноменальное «звериное» чутье Клим применяет для розыска самых опасных и жестоких убийц. Но и сам Клим – не менее опасен, чем все те, за кем он охотится…
Страна: Россия
Студия: Продюсерский центр "Среда"
Продолжительность: 8 x ~ 00:52:00
Перевод: Не требуется
Файл
Кодек: XviD
Качество: HDTVRip
Видео: 720х400 (16:9), 25 fps, XviD, ~1350 kbps avg
Звук: 48 kHz, AC3, 2 ch, 192 Кбит/с kbps avg

МедиаИнфо

Полное имя : Klim.(Sezon.01).2015.XviD.HDTVRip.by.GeneralFilmserija.01.avi
Формат : AVI
Формат/Информация : Audio Video Interleave
Размер файла : 572 Мбайт
Продолжительность : 51 м.
Общий поток : 1551 Кбит/сек
Программа кодирования : VirtualDubMod 1.5.10.3 | www.virtualdub-fr.org || (build 2550/release)
Библиотека кодирования : VirtualDubMod build 2550/release
Видео
Идентификатор : 0
Формат : MPEG-4 Visual
Профиль формата : Advanced Simple@L5
Параметр BVOP формата : 1
Параметр QPel формата : Нет
Параметр GMC формата : Без точки перехода
Параметр матрицы формата : Выборочная
Идентификатор кодека : XVID
Идентификатор кодека/Подсказка : XviD
Продолжительность : 51 м.
Битрейт : 1349 Кбит/сек
Ширина : 720 пикселей
Высота : 400 пикселей
Соотношение сторон : 16:9
Частота кадров : 25,000 кадров/сек
Цветовое пространство : YUV
Субдискретизация насыщенности : 4:2:0
Битовая глубина : 8 бит
Тип развёртки : Прогрессивная
Метод сжатия : С потерями
Бит/(Пиксели*Кадры) : 0.187
Размер потока : 498 Мбайт (87%)
Библиотека кодирования : XviD 73
Аудио
Идентификатор : 1
Формат : AC-3
Формат/Информация : Audio Coding 3
Расширение режима : CM (complete main)
Параметр Endianness формата : Big
Идентификатор кодека : 2000
Продолжительность : 51 м.
Вид битрейта : Постоянный
Битрейт : 192 Кбит/сек
Каналы : 2 канала
Расположение каналов : Front: L R
Частота : 48,0 КГц
Частота кадров : 31,250 кадров/сек (1536 spf)
Метод сжатия : С потерями
Размер потока : 70,8 Мбайт (12%)
Выравнивание : Разделение по промежуткам
Продолжительность промежутка : 40 мс. (1,00 видеокадр)
Время предзагрузки промежутка : 500 мс.

Скриншоты



Релиз от:
[Профиль] [ЛС]
Показать сообщения:    

Текущее время: Сегодня 12:33

Часовой пояс: GMT



Вы не можете начинать темы
Вы не можете отвечать на сообщения
Вы не можете редактировать свои сообщения
Вы не можете удалять свои сообщения
Вы не можете голосовать в опросах
Вы не можете прикреплять файлы к сообщениям
Вы не можете скачивать файлы