Кливервилль / Cleaverville (Хорхе Монтеси / Jorge Montesi) [2007, Канада, Криминальная драма, SATRip] MVO

 
Автор Сообщение

painkiller ®

Стаж: 2 года 3 месяца

Сообщений: 582



Награды: Нет

Торрент-статистика

Создавать темы 20-Авг-2014 06:09

[Цитировать]

Кливервилль / Cleaverville
Страна: Канада
Жанр: Криминальная драма
Год выпуска: 2007
Продолжительность: 01:24:34
Перевод: Профессиональный (многоголосый закадровый)
Cубтитры: нет
Режиссер: Хорхе Монтеси / Jorge Montesi
В ролях: Эвер Кэрредин (Джина Карелли), Габриэль Роуз (Кей), Джефф Уинкотт (Майкл), Гас Сантьяго (Зак), Сюзан Хоган (Мегги Куинн)
Описание: После неудачной попытки мошенничества Джина Карелли пускается в бега. В конечном итоге она обращается за помощью к своей матери, которая одна растит ее дочь.
За предоставленный рип благодарим Ledy_X
"Спасибы" просьба ПИСАТЬ в теме, тем самым вы продлеваете жизнь раздаче.
Сэмпл: https://yadi.sk/i/0srJjt5da2e3Z
Качество видео: SATRip
Формат видео: AVI
Видео: 720x384 (1.88:1), 25 fps, XviD build 50 ~2103 kbps avg, 0.30 bit/pixel
Аудио: 48 kHz, AC3 Dolby Digital, 1/0 (C) ch, ~192 kbps

MediaInfo

Кливервилль - Cleaverville [Rip by Ledy_X].avi
Format : AVI
Format/Info : Audio Video Interleave
File size : 1.36 GiB
Duration : 1h 24mn
Overall bit rate : 2 305 Kbps
Movie name : Кливервилль - Cleaverville [Rip by Ledy_X]
Director : Rip by Ledy_X
Writing application : VirtualDubMod 1.5.10.3 | www.virtualdub-fr.org || (build 2550/release)
Copyright : Edich2
Comment : RuTracker.org
Video
ID : 0
Format : MPEG-4 Visual
Format profile : Advanced Simple@L5
Format settings, BVOP : 1
Format settings, QPel : No
Format settings, GMC : No warppoints
Format settings, Matrix : Default (MPEG)
Codec ID : DX50
Codec ID/Hint : DivX 5
Duration : 1h 24mn
Bit rate : 2 103 Kbps
Width : 720 pixels
Height : 384 pixels
Display aspect ratio : 1.85:1
Frame rate : 25.000 fps
Color space : YUV
Chroma subsampling : 4:2:0
Bit depth : 8 bits
Scan type : Progressive
Compression mode : Lossy
Bits/(Pixel*Frame) : 0.304
Stream size : 1.24 GiB (91%)
Writing library : XviD 1.2.1 (UTC 2008-12-04)
Audio
ID : 1
Format : AC-3
Format/Info : Audio Coding 3
Mode extension : CM (complete main)
Format settings, Endianness : Big
Codec ID : 2000
Duration : 1h 24mn
Bit rate mode : Constant
Bit rate : 192 Kbps
Channel(s) : 1 channel
Channel positions : Front: C
Sampling rate : 48.0 KHz
Bit depth : 16 bits
Compression mode : Lossy
Stream size : 116 MiB (8%)
Alignment : Split accross interleaves
Interleave, duration : 40 ms (1.00 video frame)
Interleave, preload duration : 500 ms

Скриншоты


[Профиль] [ЛС]

Создавать темы 06-Авг-2015 23:06 (спустя 11 месяцев 17 дней)

Топик был перенесен из форума Фильмы до 2014 года в форум Фильмы до 2012 года
sergej644
 
Кто просматривает тему:

Показать сообщения:    

Текущее время: Сегодня 12:50

Часовой пояс: GMT



Вы не можете начинать темы
Вы не можете отвечать на сообщения
Вы не можете редактировать свои сообщения
Вы не можете удалять свои сообщения
Вы не можете голосовать в опросах
Вы не можете прикреплять файлы к сообщениям
Вы не можете скачивать файлы