Клаустрофобия / Claustrofobia (2011) DVD5 | L1

 
Автор Сообщение

достали все ®

Пол:

Стаж: 1 год 8 месяцев

Сообщений: 6577



Награды: 12 (Подробнее)

Mega Seeder 3 (Количество: 1) Mega Releaser 1 (Количество: 1) Mega Releaser 3 (Количество: 1)
Торрент-статистика

Создавать темы 28-Авг-2016 09:33

[Цитировать]

Информация о фильме
Название: Клаустрофобия
Оригинальное название: Claustrofobia
Год выхода: 2011
Жанр: Триллер
Режиссер: Бобо Боерманс
В ролях: Драган Бакема, Элисон Кэрролл, Эрнст Деккерс, Питер Фабер
Страна: Нидерланды
Студия: Snoooep Entertainment
Продолжительность: 01:34:05
Перевод: Любительский одноголосый (Хихикающий доктор)
Файл
Кодек: MPEG-2
Качество: DVD-9
Видео: MPEG2, NTSC 16:9 (720x480@853x480) VBR, 23,976 кадров/сек
Звук: Русский DD 2.0 (192 Kbps), Голландский DD 5.1 (448 Kbps)

Меню

DVDInfo

Title:
Size: 4.37 Gb ( 4 577 714 KBytes ) - DVD-5
Enabled regions: 1, 2, 3, 4, 5, 6, 7, 8
VTS_01 :
Play Length: 01:34:05
Video: NTSC 16:9 (720x480) VBR, Auto Pan&Scan
Audio:
Russian (Dolby AC3, 2 ch)
Nederlands (Dolby AC3, 6 ch)
Menu Video:
NTSC 4:3 (704x480) VBR
Menu English Language Unit :
Root Menu

MediaInfo

Общее
Полное имя : D:ААА2КЛАУСТРОФОБИЯVIDEO_TSVTS_01_1.VOB
Формат : MPEG-PS
Размер файла : 1024 Мбайт
Продолжительность : 20 м.
Режим общего битрейта : Переменный
Общий поток : 7080 Кбит/сек
Видео
Идентификатор : 224 (0xE0)
Формат : MPEG Video
Версия формата : Version 2
Профиль формата : Main@Main
Параметр BVOP формата : Да
Параметр матрицы формата : По умолчанию
Параметр GOP формата : M=3, N=12
Продолжительность : 20 м.
Вид битрейта : Переменный
Битрейт : 6299 Кбит/сек
Максимальный битрейт : 8824 Кбит/сек
Ширина : 720 пикселей
Высота : 480 пикселей
Соотношение сторон : 16:9
Частота кадров : 23,976 кадра/сек
Стандарт вещания : NTSC
Цветовое пространство : YUV
Субдискретизация насыщенности : 4:2:0
Битовая глубина : 8 бит
Тип развёртки : Прогрессивная
Порядок развёртки : 2:3 Pulldown
Метод сжатия : С потерями
Бит/(Пиксели*Кадры) : 0.760
TimeCode_FirstFrame : 00:00:00;00
TimeCode_Source : Group of pictures header
Размер потока : 911 Мбайт (89%)
Аудио #1
Идентификатор : 189 (0xBD)-128 (0x80)
Формат : AC-3
Формат/Информация : Audio Coding 3
Расширение режима : CM (complete main)
Параметр Endianness формата : Big
Режим смешивания : DVD-Video
Продолжительность : 20 м.
Вид битрейта : Постоянный
Битрейт : 192 Кбит/сек
Каналы : 2 канала
Расположение каналов : Front: L R
Частота : 48,0 КГц
Битовая глубина : 16 бит
Метод сжатия : С потерями
Размер потока : 27,8 Мбайт (3%)
Аудио #2
Идентификатор : 189 (0xBD)-129 (0x81)
Формат : AC-3
Формат/Информация : Audio Coding 3
Расширение режима : CM (complete main)
Параметр Endianness формата : Big
Режим смешивания : DVD-Video
Продолжительность : 20 м.
Вид битрейта : Постоянный
Битрейт : 448 Кбит/сек
Каналы : 6 каналов
Расположение каналов : Front: L C R, Side: L R, LFE
Частота : 48,0 КГц
Битовая глубина : 16 бит
Метод сжатия : С потерями
Размер потока : 64,8 Мбайт (6%)
Меню

Скриншоты

Релиз:
[Профиль] [ЛС]
Кто просматривает тему:

Форум Тема Автор Размер
PBS PBS: Природа - Радиоактивные волки / PBS: Nature - Radioactive Wolves (Клаус Файтенбергер / Klaus Fajtenberger) [2011, документальный, BDRip] + original (Eng) + sub (Eng) reversefile 1.01 GB
Зарубежные мультфильмы В город приехал Санта-Клаус! / Santa Claus Is Comin' to Town (1970) BDRip sergej644 739 MB
Наука Глаза пустыни Атакама / Eyes of the Atacama (Аннетт Шеурих / Annette Scheurich, Klaus Scheurich / Клаус Шеурих) [2013 г., Документальный, научно-познавательный, HDTVRip-AVC 720p] skorpionN 1.52 GB
Документальные HD Дикая Венеция / Wild Venice (Клаус Штейндль / Klaus Steindl) [2014, Документальный, HDTVRip 720p] TorrentFilm 1.53 GB
Документальные HD Загадка иберийской рыси / Mystery of the Lynx (Клаус Файхтенбергер / Klaus Feichtenberger) [2012, Документальный, HDTV 1080i] TorrentFilm 3.82 GB
Документальные HD Загадка иберийской рыси / Mystery of the Lynx (Клаус Файхтенбергер / Klaus Feichtenberger) [2012, Документальный, HDTVRip 720p] TorrentFilm 1.71 GB
Научная и техническая литература Клаус Гофман - Можно ли сделать золото? Мошенники, обманщики и ученые в истории химических элементов [1986 г., PDF, RUS] sergej644 73 MB
Фильмы 2015 года Люди будут съедены / Mennesker bliver spist (Эрик Клаусен / Erik Clausen) [2015, Дания, драма, комедия, DVDRip] (adelstein s) + Sub Rus + Original Dan TorrentFilm 1.43 GB
Показать сообщения:    

Текущее время: Сегодня 10:06

Часовой пояс: GMT



Вы не можете начинать темы
Вы не можете отвечать на сообщения
Вы не можете редактировать свои сообщения
Вы не можете удалять свои сообщения
Вы не можете голосовать в опросах
Вы не можете прикреплять файлы к сообщениям
Вы не можете скачивать файлы