Классик (1998) DVDRip-AVC от 0ptimus

 
Автор Сообщение

Russian Mafia ®

Пол:

Стаж: 1 год 8 месяцев

Сообщений: 4247



Награды: 10 (Подробнее)

Top Releaser 4 (Количество: 1) Mega Seeder 2 (Количество: 1) Top Releaser 5 (Количество: 1)
Торрент-статистика

Создавать темы 08-Сен-2015 09:19

[Цитировать]

"Мы разыграем другую партию и сделаем это красиво и элегантно..."Информация о фильме
Название: Классик
Год выхода: 1998
Жанр: Боевик, криминал
Режиссер: Георгий Шенгелия
В ролях: Сергей Никоненко, Алексей Гуськов, Юозас Будрайтис, Лидия Вележева, Валентина Теличкина, Александр Панкратов-Чёрный, Владимир Этуш, Владимир Зельдин, Евгений Серов, Михаил Шашков, Анатолий Журавлёв, Валерий Баринов, Валерий Фрид, Владимир Литвинов, Юрий Слободенюк, Евгений Богородский, Виктор Савкин, Владимир Тимофеев, Михаил Хомяков, Александр Коданев, Вячеслав Бухаров, Екатерина Толдонова, Арий Чумаков, Алексей Крыченков, Наиль Идрисов, Ирина Блинова
О фильме:
Действующие «асы» бильярда из разных городов России решили сообща сделать подарок своим учителям, доживающим свои дни в богадельнях. Они решили собрать деньги и поселить своих бывших бильярдных наставников в приличном поместье - особняке с участком, с достойным обслуживанием и питанием. Смоленские, питерские и московские авторитеты бильярда сделали свой вклад в «общак». Дошла очередь до одного из областных авторитетов Савицкого. Вначале он не пожелал участвовать в общем деле, но когда его пристыдили, дал 20 тысяч «зелёных», но вслед сборщикам послал убийц. Те решили, что сделали своё дело, и в руки Савицкого попала вся собранная сумма. Но курьеры смогли выжить после нападения и рассказали всё. И тогда был разработан хитрый план…

Страна: Россия
Студия: Киномост
Продолжительность: 01:40:29
Перевод: Не требуется
Файл
Кодек: h.264
Качество: DVDRip-AVC
Видео: 2343 Кбит/с, 692x572@738x572, 25.000 кадр/с
Звук: АС3, 2 ch, 192 Кбит/с

MediaInfo

Полное имя : Klassik.1998.x264.DVDRip.(AVC).0ptimus.mkv
Формат : Matroska
Версия формата : Version 4 / Version 2
Размер файла : 1,78 Гбайт
Продолжительность : 1 ч. 40 м.
Общий поток : 2537 Кбит/сек
Название фильма : Классик [1998] -=DVDRip (AVC) by 0ptimus=-
Дата кодирования : UTC 2013-12-28 18:51:09
Программа кодирования : mkvmerge v6.6.0 ('The Edge Of The In Between') built on Dec 1 2013 17:55:00
Библиотека кодирования : libebml v1.3.0 + libmatroska v1.4.1
Видео
Идентификатор : 1
Формат : AVC
Формат/Информация : Advanced Video Codec
Профиль формата : High@L4.1
Параметр CABAC формата : Да
Параметр ReFrames формата : 8 кадров
Идентификатор кодека : V_MPEG4/ISO/AVC
Продолжительность : 1 ч. 40 м.
Битрейт : 2343 Кбит/сек
Ширина : 692 пикселя
Высота : 572 пикселя
Соотношение сторон : 1,290
Частота кадров : 25,000 кадров/сек
Цветовое пространство : YUV
Субдискретизация насыщенности : 4:2:0
Битовая глубина : 8 бит
Тип развёртки : Прогрессивная
Бит/(Пиксели*Кадры) : 0.237
Размер потока : 1,61 Гбайт (90%)
Библиотека кодирования : x264 core 133 r2334 a3ac64b
Настройки программы : cabac=1 / ref=8 / deblock=1:-3:-3 / analyse=0x3:0x113 / me=umh / subme=10 / psy=1 / psy_rd=1.00:0.20 / mixed_ref=1 / me_range=32 / chroma_me=1 / trellis=2 / 8x8dct=1 / cqm=0 / deadzone=21,11 / fast_pskip=0 / chroma_qp_offset=-3 / threads=4 / lookahead_threads=1 / sliced_threads=0 / nr=0 / decimate=0 / interlaced=0 / bluray_compat=0 / constrained_intra=0 / bframes=10 / b_pyramid=2 / b_adapt=2 / b_bias=0 / direct=0 / weightb=1 / open_gop=0 / weightp=2 / keyint=250 / keyint_min=25 / scenecut=40 / intra_refresh=0 / rc_lookahead=40 / rc=2pass / mbtree=0 / bitrate=2343 / ratetol=1.0 / qcomp=0.60 / qpmin=0 / qpmax=69 / qpstep=4 / cplxblur=20.0 / qblur=0.5 / vbv_maxrate=50000 / vbv_bufsize=50000 / nal_hrd=none / ip_ratio=1.40 / pb_ratio=1.30 / aq=1:1.00
Язык : Russian
Аудио
Идентификатор : 2
Формат : AC-3
Формат/Информация : Audio Coding 3
Расширение режима : CM (complete main)
Идентификатор кодека : A_AC3
Продолжительность : 1 ч. 40 м.
Вид битрейта : Постоянный
Битрейт : 192 Кбит/сек
Каналы : 2 канала
Расположение каналов : Front: L R
Частота : 48,0 КГц
Битовая глубина : 16 бит
Метод сжатия : С потерями
Размер потока : 138 Мбайт (8%)
Язык : Russian
Меню
00:00:00.000 : :Chapter 01
00:09:08.520 : :Chapter 02
00:13:09.360 : :Chapter 03
00:19:42.840 : :Chapter 04
00:29:12.240 : :Chapter 05
00:36:45.840 : :Chapter 06
00:42:34.320 : :Chapter 07
00:51:06.600 : :Chapter 08
00:58:16.800 : :Chapter 09
01:08:29.760 : :Chapter 10
01:20:00.960 : :Chapter 11
01:35:44.400 : :Chapter 12
01:40:28.680 : :Chapter 13

Скриншоты



[Профиль] [ЛС]
Показать сообщения:    

Текущее время: Сегодня 02:14

Часовой пояс: GMT



Вы не можете начинать темы
Вы не можете отвечать на сообщения
Вы не можете редактировать свои сообщения
Вы не можете удалять свои сообщения
Вы не можете голосовать в опросах
Вы не можете прикреплять файлы к сообщениям
Вы не можете скачивать файлы