Клад на пустыре (Ирина Кривошеева) [1987, Кукольный мультфильм, WEBRip]

 
Автор Сообщение

painkiller ®

Стаж: 2 года 3 месяца

Сообщений: 582



Награды: Нет

Торрент-статистика

Создавать темы 27-Авг-2014 15:29

[Цитировать]

Клад на пустыре
Страна: СССР
Жанр: Кукольный мультфильм
Продолжительность: 00:08:41
Год выпуска: 1987
Русские субтитры: нет
Режиссёр: Ирина Кривошеева
Описание: Однажды любопытный и жадный до приключений пес Барбос нашел загадочную записку, в которой содержались указания о том, где и как он может найти клад. Загоревшийся идеей во что бы то ни стало найти таинственные сокровища Барбос перерыл весь пустырь. Когда на свежевспаханной земле вырос зеленый сад, который стал радовать всех прохладой и чудесными плодами, Барбос, наконец, понял, о каком кладе шла речь. И ни о чем не пожалел!
Доп. информация:
Оператор:В.Бахтеев
Художник:Р.Камалетдинов
Сценарий:В.Гусев
Композитор:И.Берлин
Синхронизация звука dvdss
Качество: WEBRip
Формат: AVI
Видео: 640x480 (1.33:1), 25 fps, XviD build 50 ~1641 kbps avg, 0.21 bit/pixel
Аудио: 48 kHz, AC3 Dolby Digital, 1/0 (C) ch, ~96.00 kbps avg
Субтитры: нет

Подробные технические данные

Формат : AVIФормат/Информация : Audio Video InterleaveРазмер файла : 109 МбайтПродолжительность : 8 м. 41 с.Общий поток : 1747 Кбит/секПрограмма кодирования : VirtualDubModRus 1.5.10.2 (build 2542/release)Библиотека кодирования : VirtualDubMod build 2542/release
ВидеоИдентификатор : 0Формат : MPEG-4 VisualПрофиль формата : Simple@L3Параметр BVOP формата : НетПараметр QPel формата : НетПараметр GMC формата : Без точки переходаПараметр матрицы формата : Default (H.263)Идентификатор кодека : XVIDИдентификатор кодека/Подсказка : XviDПродолжительность : 8 м. 41 с.Битрейт : 1642 Кбит/секШирина : 640 пикс.Высота : 480 пикс.Соотношение сторон : 4:3Частота кадров : 25,000 кадр/секЦветовое пространство : YUVПодвыборка цветности : 4:2:0Битовая глубина : 8 битТип развёртки : ПрогрессивнаяМетод сжатия : С потерямиБит/(Пиксели*Кадры) : 0.214Размер потока : 102 Мбайт (94%)Библиотека кодирования : XviD 1.2.1 (UTC 2008-12-04)
АудиоИдентификатор : 1Формат : AC-3Формат/Информация : Audio Coding 3Расширение режима : CM (complete main)Идентификатор кодека : 2000Продолжительность : 8 м. 41 с.Вид битрейта : ПостоянныйБитрейт : 96,0 Кбит/секКанал(ы) : 1 каналРасположение каналов : Front: CЧастота : 48,0 КГцБитовая глубина : 16 битМетод сжатия : С потерямиЗадержка видео : 1 с. 100 мс.Размер потока : 5,97 Мбайт (5%)Выравнивание : Разделение по промежуткамПродолжительность промежутка : 40 мс. (1,00 видеокадр)Время предзагрузки промежутка : 500 ms

Скриншоты

[Профиль] [ЛС]
Кто просматривает тему:

Показать сообщения:    

Текущее время: Сегодня 18:36

Часовой пояс: GMT



Вы не можете начинать темы
Вы не можете отвечать на сообщения
Вы не можете редактировать свои сообщения
Вы не можете удалять свои сообщения
Вы не можете голосовать в опросах
Вы не можете прикреплять файлы к сообщениям
Вы не можете скачивать файлы