Кладбище Джерук пурут / Hauntu Jerut purut (Койя Пагайо / Koya Pagayo) [2006, Индонезия, Ужасы, DVDRip] DVO (den904 & DeadSno)

 
Автор Сообщение

TorrentFilm ®

Пол:

Стаж: 1 год 11 месяцев

Сообщений: 7741



Награды: Нет

Торрент-статистика

Создавать темы 20-Мар-2015 00:02

[Цитировать]

Кладбище Джерук пурут / Hauntu Jerut purut
Страна: Индонезия
Жанр: Ужасы
Год выпуска: 2006
Продолжительность: 01:26:55
Перевод: Любительский (двухголосый закадровый) den904 & DeadSno
Cубтитры: нет
Режиссер: Койя Пагайо / Koya Pagayo
В ролях: Самуэль З. Хекенбукер, Шейла Марсия, Энжи Вирджин
Описание: Мечтающая о писательской славе Айрин знакомится с писательницей романов ужасов Анной, которой отдает на оценку свою новеллу о призраке безголового священника с кладбища Джерек Пурут (Джерек Пурут - это область, расположенная в южной части Джакарты). Анна уговаривает Айрин продолжать написание романа. Хотя двое ее друзей, Надин и Вален, отговаривают ее. Айрин настаивает и даже просит друзей помочь провести ночь на кладбище. После посещения кладбища, их начинают преследовать призраки.
Сэмпл: http://multi-up.com/1038878
Качество видео: DVDRip
Формат видео: MKV
Видео: MPEG-4 AVC, 624x360, 534 kbps, 25 fps
Аудио: AC3, 48 KHz, 192 kbps, 2 ch

MediaInfo

Format : Matroska
Format version : Version 4 / Version 2
File size : 457 MiB
Duration : 1h 26mn
Overall bit rate : 735 Kbps
Encoded date : UTC 2015-03-17 13:16:52
Writing application : mkvmerge v7.2.0 ('On Every Street') 64bit built on Sep 13 2014 15:52:10
Writing library : libebml v1.3.0 + libmatroska v1.4.1
DURATION : 01:26:56.704000000
NUMBER_OF_FRAMES : 163022
NUMBER_OF_BYTES : 125200896
_STATISTICS_WRITING_APP : mkvmerge v7.2.0 ('On Every Street') 64bit built on Sep 13 2014 15:52:10
_STATISTICS_WRITING_DATE_UTC : 2015-03-17 13:16:52
_STATISTICS_TAGS : BPS DURATION NUMBER_OF_FRAMES NUMBER_OF_BYTES
Video
ID : 1
Format : AVC
Format/Info : Advanced Video Codec
Format profile : High@L2.1
Format settings, CABAC : No
Format settings, ReFrames : 1 frame
Codec ID : V_MPEG4/ISO/AVC
Duration : 1h 26mn
Bit rate : 534 Kbps
Width : 624 pixels
Height : 360 pixels
Display aspect ratio : 16:9
Original display aspect ratio : 1.733
Frame rate mode : Constant
Frame rate : 25.000 fps
Color space : YUV
Chroma subsampling : 4:2:0
Bit depth : 8 bits
Scan type : Progressive
Bits/(Pixel*Frame) : 0.095
Stream size : 329 MiB (72%)
Writing library : x264 core 80 r1378+57 6f6b50a
Encoding settings : cabac=0 / ref=1 / deblock=1:0:0 / analyse=0x3:0x113 / me=hex / subme=7 / psy=1 / psy_rd=1.0:0.0 / mixed_ref=0 / me_range=16 / chroma_me=1 / trellis=0 / 8x8dct=1 / cqm=0 / deadzone=21,11 / fast_pskip=1 / chroma_qp_offset=-2 / threads=4 / sliced_threads=0 / nr=0 / decimate=1 / mbaff=0 / constrained_intra=0 / bframes=0 / wpredp=2 / keyint=250 / keyint_min=25 / scenecut=40 / rc_lookahead=40 / rc=abr / mbtree=1 / bitrate=534 / ratetol=1.0 / qcomp=0.60 / qpmin=10 / qpmax=51 / qpstep=4 / ip_ratio=1.40 / aq=1:1.00
Default : Yes
Forced : No
Audio
ID : 2
Format : AC-3
Format/Info : Audio Coding 3
Mode extension : CM (complete main)
Format settings, Endianness : Big
Codec ID : A_AC3
Duration : 1h 26mn
Bit rate mode : Constant
Bit rate : 192 Kbps
Channel(s) : 2 channels
Channel positions : Front: L R
Sampling rate : 48.0 KHz
Bit depth : 16 bits
Compression mode : Lossy
Stream size : 119 MiB (26%)
Default : Yes
Forced : No

Скриншот c названием фильма

Скриншоты



[Профиль] [ЛС]

Создавать темы 06-Авг-2015 22:40 (спустя 4 месяца 17 дней)

Топик был перенесен из форума Фильмы до 2014 года в форум Фильмы до 2012 года
sergej644
 
Кто просматривает тему:

Форум Тема Автор Размер
Фильмы (DVD 5/9) Загадка старого кладбища (Станислав Грачёв) [2008, Россия, мистика, ужасы, DVD5] [STG SINEMA] Original Rus TorrentFilm 4.3 GB
Фильмы 2015 года Кладбище блеска / Rak ti Khon Kaen (2015) BDRip | L2 достали все 2.18 GB
Приключения, Квесты, Логические Кладбище искупления 8: На пороге смерти / Redemption Cemetery 8: At Death's Door CE (2016) PC достали все 1.03 GB
Приключения, Квесты, Логические Кладбище искупления. Жуткий холод. Коллекционное издание (2013) PC достали все 815 MB
Приключения, Квесты, Логические Кладбище обреченных 5. Морозная скорбь. Коллекционное издание (2015) PC достали все 892 MB
Фильмы (HD Rips | 720p, 1080p) Кладбищенский союз / Городок Сэметри / Cemetery Junction (2010) BDRip 720p от Leonardo and Scarabey | P sergej644 2.76 GB
Фильмы (HD Rips | 720p, 1080p) Парень с нашего кладбища (2015) WEB-DL 1080p | iTunes достали все 3.36 GB
Фильмы (HD Rips | 720p, 1080p) Парень с нашего кладбища (2015) WEB-DL 720p | iTunes достали все 2.72 GB
Показать сообщения:    

Текущее время: Сегодня 11:57

Часовой пояс: GMT



Вы не можете начинать темы
Вы не можете отвечать на сообщения
Вы не можете редактировать свои сообщения
Вы не можете удалять свои сообщения
Вы не можете голосовать в опросах
Вы не можете прикреплять файлы к сообщениям
Вы не можете скачивать файлы